Watch GCW The Compound Fight Club Chapter 2 After Hours WEB DL

Watch GCW The Compound Fight Club Chapter 2 After Hours WEB DL

 

 

 

s

 

 

 

wwe

 

 

 

 

 

 

 
Complete name : GCW.The.Compound.Fight.Club.Chapter.2.After.Hours.WEBDL-iDeas.mp4
Format : MPEG-4
Format profile : Base Media / Version 2
Codec ID : mp42
File size : 1.36 GiB
Duration : 1h 31mn
Overall bit rate : 2 126 Kbps
Encoded date : UTC 2018-02-10 17:34:08
Tagged date : UTC 2018-02-10 17:35:07

Video
ID : 1
Format : AVC
Format/Info : Advanced Video Codec
Codec ID : avc1
Codec ID/Info : Advanced Video Coding
Duration : 1h 31mn
Bit rate mode : Variable
Bit rate : 1 995 Kbps
Width : 854 pixels
Height : 480 pixels
Display aspect ratio : 16:9
Frame rate mode : Constant
Frame rate : 23.976 fps
Color space : YUV
Chroma subsampling : 4:2:0
Bit depth : 8 bits
Scan type : Progressive
Bits/(Pixel*Frame) : 0.203
Stream size : 1.28 GiB (94%)
Language : English
Encoded date : UTC 2018-02-10 17:34:04

Audio
ID : 2
Format : AAC
Format/Info : Advanced Audio Codec
Format profile : LC
Codec ID : 40
Duration : 1h 31mn
Bit rate mode : Constant
Bit rate : 128 Kbps
Channel(s) : 2 channels
Channel positions : Front: L R
Sampling rate : 48.0 KHz
Compression mode : Lossy
Stream size : 84.1 MiB (6%)
Language : English
Encoded date : UTC 2018-02-10 17:34:04
Tagged date : UTC 2018-02-10 17:35:07

 

 

 

 

 

 

 

 

 

 

 

 

 

 

 

 

 

 

Watch GCW The Compound Fight Club Chapter 2 After Hours WEB DL

 

 

 

 

Watch online

 

 

Waiting finish converting video

 

 

Server 1

 

 

 

 

 

 

 

 

 

 

 

 

 

 

 

 

 

 

 

Server 2

 

 

 

 

 

 

 


 

 

 

 

 

 

Uploaded By Site DX-TV.com

 

 

 

open rar file to see this password

 

 

 

 

The password is : DX-TV.com

 

 

 

 

 

Uploaded.net + rapidgator.net

 

 

 

 

 

 

http://shrt10.com/ACiYlZv

 

 

 

 

 

http://shrt10.com/5dYh0Zt

 

 

 

 

 

 

 

 

 

Watch GCW The Compound Fight Club Chapter 2 After Hours WEB DL

Support HVIPS

Please Disable Ad-Block To View This site. just help us to continue this work