Watch GCW Ready To Die 2017 12 16 mp4

Watch GCW Ready To Die 2017 12 16 mp4

 

 

 

 

 

 

wwe

 

 

 

 

 

 

 

 

GCW’s second anniversary show, featuring the third and final meeting between Matt Tremont and Nick Gage.

Card:
1. Jeff Cannonball vs. Kyle the Beast
2. GCW Extreme Championship: Tony Deppen (c) vs. Eli Everfly
3. GCW Tag Team Championship: The Rejects (c) vs. Viking War Party
4. Homicide vs. Matt Riddle
5. Christmas in Hell Match for the DTU Championship: SHLAK (c) vs. Jimmy Lloyd
6. Alex Colon vs. G-Raver
7. Eric Ryan vs. Markus Crane
8. Three Layers of Hell Match for the GCW Championship: Matt Tremont (c) vs. Nick Gage

This is my first torrent upload ever and I don’t have the greatest internet so bear with me. Taken directly from SMV.
 

 

 

 

 

 
Complete name : gcw-12-16-2017.mp4.mp4
Format : MPEG-4
Format profile : Base Media / Version 2
Codec ID : mp42
File size : 3.14 GiB
Duration : 3h 14mn
Overall bit rate : 2 312 Kbps
Encoded date : UTC 2017-12-29 20:21:48
Tagged date : UTC 2017-12-29 20:21:48
Writing application : HandBrake 0.10.5 2016021100

Video
ID : 1
Format : AVC
Format/Info : Advanced Video Codec
Codec ID : avc1
Codec ID/Info : Advanced Video Coding
Duration : 3h 14mn
Bit rate mode : Variable
Bit rate : 2 200 Kbps
Width : 720 pixels
Height : 480 pixels
Display aspect ratio : 16:9
Original display aspect ratio : 16:9
Frame rate mode : Variable
Frame rate : 23.976 fps
Minimum frame rate : 11.990 fps
Maximum frame rate : 90 000.000 fps
Standard : NTSC
Color space : YUV
Chroma subsampling : 4:2:0
Bit depth : 8 bits
Scan type : Progressive
Bits/(Pixel*Frame) : 0.266
Stream size : 2.98 GiB (95%)

Audio
ID : 2
Format : AAC
Format/Info : Advanced Audio Codec
Format profile : LC
Codec ID : 40
Duration : 3h 14mn
Bit rate mode : Variable
Bit rate : 106 Kbps
Channel(s) : 2 channels
Channel positions : Front: L R
Sampling rate : 48.0 KHz
Compression mode : Lossy
Stream size : 147 MiB (5%)
Title : Stereo

 

 

 

 

 

 

 

 

 

 

Watch GCW Ready To Die 2017 12 16 mp4

 

 

 

 

Watch online

 

 

Waiting finish converting video

 

 

Server 1

 

 

 

 

 

 

 

 

 

 

 

 

 

 

 

 

 

 

 

 

 

 

 

 

 

 

 

Server 2

 

 

 

 

 

 

 

 

 

 

 

 

 

 

 

 

 

 

 

 

 

 

 

 

 

Uploaded By Site DX-TV.com

 

 

 

open rar file to see this password

 

 

 

 

The password is : DX-TV.com

 

 

 

 

 

 

rapidgator.net

 

 

 

 

 

 

 

 

http://shrt10.com/gstj21T

 

 

 

 

 

 

 

 

 

 

 

 

 

Watch GCW Ready To Die 2017 12 16 mp4

Support HVIPS

Please Disable Ad-Block To View This site. just help us to continue this work