Watch Fight Nights Global 73 04 09 2017 RUS mp4

Watch Fight Nights Global 73 04 09 2017 RUS mp4

 

 

 

 

 

 

wwe

 

 

 

 

 

 

Complete name : Fight Nights Global 73 04 09 2017.mp4
Format : MPEG-4
Format profile : Base Media / Version 2
Codec ID : mp42
File size : 775 MiB
Duration : 1h 4mn
Overall bit rate : 1 669 Kbps

Video
ID : 1
Format : AVC
Format/Info : Advanced Video Codec
Duration : 1h 4mn
Duration_LastFrame : 40ms
Bit rate mode : Variable
Bit rate : 1 500 Kbps
Width : 960 pixels
Height : 540 pixels
Display aspect ratio : 16:9
Frame rate mode : Constant
Frame rate : 25.000 fps
Color space : YUV
Chroma subsampling : 4:2:0
Bit depth : 8 bits
Scan type : Progressive
Bits/(Pixel*Frame) : 0.116
Stream size : 699 MiB
Writing library : x264 core 120

Audio
ID : 2
Format : AAC
Format/Info : Advanced Audio Codec
Format profile : LC
Codec ID : 40
Duration : 1h 4mn
Bit rate mode : Variable
Bit rate : 160 Kbps
Maximum bit rate : 186 Kbps
Channel(s) : 2 channels
Channel positions : Front: L R
Sampling rate : 48.0 KHz
Compression mode : Lossy
Stream size : 74.3 MiB
Language : Russian
Encoded date : UTC 2017-09-07 08:47:48
Tagged date : UTC 2017-09-07 09:30:53

 

 

 

 

 

 

 

 

 

 

Watch Fight Nights Global 73 04 09 2017 RUS mp4

 

 

 

 

Watch online

 

 

Waiting finish converting video

 

 

Server 1

 

 

 

 

 

 

 

 

 

 

 

 

 

 

 

 

 

 

 

 

Server 2

 

 

 

 

 

 

 

 

 

 

 


 

 

 

 

 

 

Uploaded By Site DX-TV.com

 

 

 

open rar file to see this password

 

 

 

 

The password is : DX-TV.com

 

 

 

 

540p

 

 

 

Uploaded.net

 

 

 

 

 

http://tmearn.com/ROfD

 

 

 

 

 

 

 

 

 

 

rapidgator.net

 

 

 

 

 

 

http://tmearn.com/bheQ

 

 

 

 

 

 

 

 

Watch Fight Nights Global 73 04 09 2017 RUS mp4