Watch Fight Night Global 75 HDTV 576i RUS mp4

Watch Fight Night Global 75 HDTV 576i RUS mp4

 

 

 

 

 

 

wwe

 

 

 

 

 

 

 

Complete name : FIGHT NIGHTS GLOBAL 75.ts
Format : MPEG-TS
Format/Info : Advanced Video Codec
File size : 4.72 GiB
Duration : 3h 19mn
Overall bit rate : 3 390 Kbps

Video
ID : 202 (0xCA)
Menu ID : 1302 (0x516)
Format : AVC
Format/Info : Advanced Video Codec
Format : 4 frames
Codec ID : 27
Duration : 3h 19mn
Bit rate : 3 028 Kbps
Width : 720 pixels
Height : 576 pixels
Display aspect ratio : 16:9
Frame rate : 25.000 fps
Standard : Component
Color space : YUV
Chroma subsampling : 4:2:0
Bit depth : 8 bits
Scan type : Interlaced
Scan order : Top Field First
Bits/(Pixel*Frame) : 0.292
Stream size : 4.22 GiB (89%)

Audio
ID : 302 (0x12E)
Menu ID : 1302 (0x516)
Format version : Version 1
Format profile : Layer 2
Codec ID : 3
Duration : 3h 19mn
Bit rate mode : Constant
Bit rate : 192 Kbps
Channel(s) : 2 channels
Sampling rate : 48.0 KHz
Compression mode : Lossy
Stream size : 274 MiB (6%)
Language : Russian

 

 

 

 

 

 

 

Watch Fight Night Global 75 HDTV 576i RUS mp4

 

 

 

 

Watch online

 

 

Waiting finish converting video

 

 

Server 1

 

 

 

 

 

 

 

 

 

 

 

 

 

 

 

 

 

 

 

 

Server 2

 

 

 

 

 

 

 

 

 

 

 


 

 

 

 

 

 

 

 

 

Uploaded By Site DX-TV.com

 

 

 

open rar file to see this password

 

 

 

 

The password is : DX-TV.com

 

 

 

 

576i

 

 

 

 

Uploaded.net

 

 

 

 

 

 

http://shrt10.com/qRQ7OiK

 

 

 

 

http://shrt10.com/k4EF

 

 

 

 

 

 

rapidgator.net

 

 

 

 

 

 

http://shrt10.com/2wRRb

 

 

 

 

http://shrt10.com/47bF

 

 

 

 

 

Watch Fight Night Global 75 HDTV 576i RUS mp4

Support HVIPS

Please Disable Ad-Block To View This site. just help us to continue this work