Watch EVOLVE 98 2018 01 13 720p WEB Lopatar

Watch EVOLVE 98 2018 01 13 720p WEB Lopatar

 

 

 

 

 

 

wwe

 

 

 

 

 

 

 

 
Complete name : EVOLVE.98.2018.01.13.720p.WEB.x264-Lopatar.mp4
Format : MPEG-4
Format profile : Base Media
Codec ID : isom
File size : 2.09 GiB
Duration : 2h 26mn
Overall bit rate : 2 035 Kbps
Writing application : Lavf58.3.100

Video
ID : 1
Format : AVC
Format/Info : Advanced Video Codec
Codec ID : avc1
Codec ID/Info : Advanced Video Coding
Duration : 2h 26mn
Bit rate mode : Variable
Bit rate : 1 898 Kbps
Width : 1 280 pixels
Height : 720 pixels
Display aspect ratio : 16:9
Frame rate mode : Variable
Frame rate : 29.689 fps
Minimum frame rate : 1.109 fps
Maximum frame rate : 30.303 fps
Color space : YUV
Chroma subsampling : 4:2:0
Bit depth : 8 bits
Scan type : Progressive
Bits/(Pixel*Frame) : 0.069
Stream size : 1.95 GiB (93%)

Audio
ID : 2
Format : AAC
Format/Info : Advanced Audio Codec
Format profile : LC
Codec ID : 40
Duration : 2h 26mn
Bit rate mode : Constant
Bit rate : 126 Kbps
Channel(s) : 2 channels
Channel positions : Front: L R
Sampling rate : 48.0 KHz
Compression mode : Lossy
Stream size : 132 MiB (6%)

 

 

 

 

 

 

 

 

 

 

 

 

 

 

 

 

 

Watch EVOLVE 98 2018 01 13 720p WEB Lopatar

 

 

 

 

Watch online

 

 

Waiting finish converting video

 

 

Server 1

 

 

 

 

 

 

 

 

 

 

 

 

 

 

 

 

 

 

 

 

 

 

Server 2

 

 

 

 

 

 

 


 

 

 

 

 

 

 

Uploaded By Site DX-TV.com

 

 

 

open rar file to see this password

 

 

 

 

The password is : DX-TV.com

 

 

 

 

720p

 

 

 

 

 

Uploaded.net + rapidgator.net

 

 

 

 

 

 

 

 

 

http://shrt10.com/b46bUqqG

 

 

 

 

http://shrt10.com/PWfyBEYd

 

 

 

 

 

 

 

Watch EVOLVE 98 2018 01 13 720p WEB Lopatar

Support HVIPS

Please Disable Ad-Block To View This site. just help us to continue this work