Watch Evolve 97 720p

Watch Evolve 97 720p

 

 

 

 

 

 

wwe

 

 

 

 

 

 

 
Complete name : Evolve 97.mp4
Format : MPEG-4
Format profile : Base Media
Codec ID : isom
File size : 2.46 GiB
Duration : 2h 52mn
Overall bit rate : 2 039 Kbps
Writing application : Lavf57.75.100

Video
ID : 1
Format : AVC
Format/Info : Advanced Video Codec
Codec ID : avc1
Codec ID/Info : Advanced Video Coding
Duration : 2h 52mn
Bit rate mode : Variable
Bit rate : 1 902 Kbps
Width : 1 280 pixels
Height : 720 pixels
Display aspect ratio : 16:9
Frame rate mode : Variable
Frame rate : 29.707 fps
Minimum frame rate : 0.205 fps
Maximum frame rate : 30.303 fps
Color space : YUV
Chroma subsampling : 4:2:0
Bit depth : 8 bits
Scan type : Progressive
Bits/(Pixel*Frame) : 0.069
Stream size : 2.29 GiB (93%)

Audio
ID : 2
Format : AAC
Format/Info : Advanced Audio Codec
Format profile : LC
Codec ID : 40
Duration : 2h 52mn
Bit rate mode : Constant
Bit rate : 126 Kbps
Channel(s) : 2 channels
Channel positions : Front: L R
Sampling rate : 48.0 KHz
Compression mode : Lossy
Stream size : 155 MiB (6%)

 

 

 

 

 

 

Format : MPEG-4 at 2 039 kb/s
Length : 2.46 GiB for 2 h 52 min 44 s 609 ms

Video #0 : AVC at 1 902 kb/s
Aspect : 1280 x 720 (1.778) at 29.707 fps

Audio #0 : AAC at 126 kb/s
Infos : 2 channels, 48.0 kHz

Main Event #1 – EVOLVE Championship Match
Zack Sabre Jr. defends vs. EVOLVE Tag Team Champion Jaka with Stokely Hathaway

Main Event #2 – The Rivalry EVOLVEs
Matt Riddle vs. WALTER

High Stakes Three-Way Match – Non-Title – Winner Gets To Book Himself In Any Match He Wants
WWN Champion Keith Lee vs. Tracy Williams with Stokely Hathaway vs. Darby Allin

FIP World Heavyweight Championship Match
Fred Yehi defends vs. Austin Theory with Priscilla Kelly

Top Talents Collide!
AR Fox vs. DJZ

Special Challenge Match
Jason Kincaid vs. Jarek 1:20
 

 

 

 

 

 

 

 

 

 

 

Watch Evolve 97 720p

 

 

 

 

Watch online

 

 

Waiting finish converting video

 

 

Server 1

 

 

 

 

 

 

 

 

 

 

 

 

 

 

 

 

 

 

 

 

Server 2

 

 

 

 

 

 

 

 

 

 

 

 


 

 

 

 

 

 

 

 

 

Uploaded By Site DX-TV.com

 

 

 

open rar file to see this password

 

 

 

 

The password is : DX-TV.com

 

 

 

 

720p

 

 

 

 

 

rapidgator.net

 

 

 

 

 

 

 

 

 
http://shrt10.com/WsmwF9nC

 

 

 

 

 

 

 

 

 

 

 

 

 

Watch Evolve 97 720p