Watch Evolve 96 WEB DL DX-TV /720p

Watch Evolve 96 WEB DL DX-TV /720p

 

 

 

 

 

 

wwe

 

 

 

 

 

 

[EVENT]………..: Evolve 96 WEB DL x264 DX-TV
[RELEASED]……..: 2017.12.15
[SOURCE]……….: 720p
[CONTAINER]…….: mp4
[SIZE]…………: 2.60 GB
[Capper Group]….: DX-TV
[Duration]……..: 2 h 58 m
[RESOLUTION]……: 720 x 480 {16:9}@ 30.000 FPS
[VIDEO]………..: x264 @ 1400 kbps
[AUDIO]………..: AAC @ 160 kbps
[language]……..: English
 

 

 

 

 

 

 
Complete name : EVOLVE 96 – DUNN.mp4
Format : MPEG-4
Format profile : Base Media / Version 2
Codec ID : mp42
File size : 4.41 GiB
Duration : 3h 58mn
Overall bit rate : 2 641 Kbps
Video
ID : 1
Format : AVC
Format/Info : Advanced Video Codec
Codec ID : avc1
Codec ID/Info : Advanced Video Coding
Duration : 3h 58mn
Bit rate mode : Variable
Bit rate : 2 500 Kbps
Width : 1 280 pixels
Height : 720 pixels
Display aspect ratio : 16:9
Frame rate mode : Constant
Frame rate : 59.940 fps
Color space : YUV
Chroma subsampling : 4:2:0
Bit depth : 8 bits
Scan type : Progressive
Bits/(Pixel*Frame) : 0.045
Stream size : 4.17 GiB (95%)
Language : English

Audio
ID : 2
Format : AAC
Format/Info : Advanced Audio Codec
Format profile : LC
Codec ID : 40
Duration : 3h 58mn
Bit rate mode : Constant
Bit rate : 128 Kbps
Channel(s) : 2 channels
Channel positions : Front: L R
Sampling rate : 44.1 KHz
Compression mode : Lossy
Stream size : 218 MiB (5%)
Language : English

 

 

 

 

 

 

 

 

 

 

 

Watch Evolve 96 WEB DL DX-TV /720p

 

 

 

 

Watch online

 

 

Waiting finish converting video

 

 

Server 1

 

 

 

 

 

 

 

 

 

 

 

 

 

 

 

 

 

 

 

 

Server 2

 

 

 

 

 

 

 

 

 

 

 

 

 

 


 

 

 

 

 

 

 

Uploaded By Site DX-TV.com

 

 

 

open rar file to see this password

 

 

 

 

The password is : DX-TV.com

 

 

 

 

400p+720p

 

 

 

 

 

rapidgator.net

 

 

 

 

 

 

 

 

http://shrt10.com/EsGDZ8H

 

 

 

http://shrt10.com/raN1UL

 

 

 

http://shrt10.com/ugOa6

 

 

 

 

 

 

 

 

 

 

 

 

 

Watch Evolve 96 WEB DL DX-TV /720p