Watch EVOLVE 93 2017 09 23 720p mp4

Watch EVOLVE 93 2017 09 23 720p mp4

 

 

 

 

 

 

 

 

 

 

 

 

wwe

 

 

 

 

 

 

 
EVOLVE 93
————-
Date: 23.09.2017
Promotion: EVOLVE Wrestling, World Wrestling Network
Type: Pay Per View
Location: Summit, Illinois, USA
Arena: Summit Park District
Broadcast date: 23.09.2017
TV station/network: WWNLive.com

Anthony Henry vs. Jason Kincaid

Austin Theory (w/Priscilla Kelly) vs. James Drake

FW Title Four Way Match
Stevie Fierce (c) vs. Bryce Benjamin vs. GPA vs. Matt Knicks

Darby Allin vs. DJ Z

EVOLVE Tag Team Title Match
ACH & Ethan Page (c) vs. Catch Point (Chris Dickinson & Jaka)

EVOLVE Title Match
Zack Sabre Jr. (c) vs. Keith Lee

WWN Title Anything Goes Match
Matt Riddle (c) vs. Tracy Williams
 

 

 

Complete name : EVOLVE 93.mp4
Format : MPEG-4
Format profile : Base Media
Codec ID : isom
File size : 3.04 GiB
Duration : 2h 42mn
Overall bit rate : 2 669 Kbps
Writing application : Lavf57.66.102

Video
ID : 1
Format : AVC
Format/Info : Advanced Video Codec
Format settings, ReFrames : 4 frames
Codec ID : avc1
Codec ID/Info : Advanced Video Coding
Duration : 2h 42mn
Duration_LastFrame : -23ms
Bit rate mode : Variable
Bit rate : 2 500 Kbps
Width : 1 920 pixels
Height : 1 080 pixels
Display aspect ratio : 16:9
Frame rate mode : Constant
Frame rate : 30.000 fps
Color space : YUV
Chroma subsampling : 4:2:0
Bit depth : 8 bits
Scan type : Progressive
Bits/(Pixel*Frame) : 0.040
Stream size : 2.84 GiB (94%)

Audio
ID : 2
Format : AAC
Format/Info : Advanced Audio Codec
Format profile : LC
Codec ID : 40
Duration : 2h 42mn
Bit rate mode : Constant
Bit rate : 160 Kbps
Channel(s) : 2 channels
Channel positions : Front: L R
Sampling rate : 44.1 KHz
Compression mode : Lossy
Stream size : 186 MiB (6%)

 

 

 

 

 

 

 

 

 

 

 

 

 

 

 

Watch EVOLVE 93 2017 09 23 720p mp4

 

 

 

 

 

 

 

Watch online

 

 

 

 

 

Waiting finish converting video

 

 

 

 

 

Server 1

 

 

 

 

 

 

 

 

 

 

 

 

 

 

 

 

 

 

 

 

 

 

 

 

Server 2

 

 

 

 

 

 

 

 

 

 

 


 

 

 

 

 

 

 

 

 

 

 

 

 

Uploaded By Site : Dx-tv.com

 

 

 

 

 

 

Open rar file to see password

 

 

 

 

Password : dx-tv.com

 

 

 

 

 

720p

 

 

 

 

 

Uploaded+rapidgator

 

 

 

 

 

 

 

http://shrt10.com/DumcLSYi

 

 

 

 

 

 

 

 

http://shrt10.com/Ljhu

 

 

 

 

 

 

 

 

 

 

Watch EVOLVE 93 2017 09 23 720p mp4

Support HVIPS

Please Disable Ad-Block To View This site. just help us to continue this work