Watch EVOLVE 108 720p mp4

Watch EVOLVE 108 720p mp4

 

 

 

 


 

 

 

dx-tv.com

 

 

 

Complete name : EVOLVE 108.mp4
Format : MPEG-4
Format profile : Base Media
File size : 1.82 GiB
Duration : 2 h 26 min
Overall bit rate : 1 777 kb/s
Writing application : Lavf57.56.100

Video
ID : 1
Format : AVC
Format/Info : Advanced Video Codec
Codec ID : avc1
Codec ID/Info : Advanced Video Coding
Duration : 2 h 26 min
Bit rate : 1 680 kb/s
Width : 1 280 pixels
Height : 720 pixels
Display aspect ratio : 16:9
Frame rate mode : Variable
Frame rate : 29.320 FPS
Minimum frame rate : 9.645 FPS
Maximum frame rate : 90 000.000 FPS
Color space : YUV
Chroma subsampling : 4:2:0
Bit depth : 8 bits
Scan type : Progressive
Bits/(Pixel*Frame) : 0.062
Stream size : 1.72 GiB (95%)

Audio
ID : 2
Format : AAC
Format/Info : Advanced Audio Codec
Format profile : LC
Codec ID : mp4a-40-2
Duration : 2 h 26 min
Bit rate mode : Constant
Bit rate : 86.2 kb/s
Channel(s) : 2 channels
Channel positions : Front: L R
Sampling rate : 44.1 kHz
Frame rate : 43.066 FPS (1024 SPF)
Compression mode : Lossy
Stream size : 90.4 MiB (5%)
Default : Yes
Alternate group : 1

 

 

 

 

 

 

Watch EVOLVE 108 720p mp4

 

 

 

 

Watch online

 

 

Waiting finish converting video

 

 

Server 1

 

 

 

 

 

 

 

 

 

 

 

 

 

Server 2

 

 

 

 

 

 

 

 

 

 

 

 

Uploaded By Site DX-TV.com

 

 

 

open rar file to see this password

 

 

 

 

The password : DX-TV.com

 

 

 

 

 

 

Uploaded.net + rapidgator.net

 

 

 

 

 

 

http://shrt10.com/GtQr

 

 

 

 

http://shrt10.com/NgLo6w4e

 

 

 

Watch EVOLVE 108 720p mp4

This site uses Akismet to reduce spam. Learn how your comment data is processed.

Support HVIPS

Please Disable Ad-Block To View This site. just help us to continue this work