Watch EVOLVE 103 2018 04 06 720p WEB iNDYHEEL

Watch EVOLVE 103 2018 04 06 720p WEB iNDYHEEL

 

 

 

 

 

 

wwe

 

 

 

 

 

 

 
Complete name : EVOLVE.103.2018.04.06.720p.WEB.h264-iNDYHEEL.mp4
Format : MPEG-4
Format profile : Base Media
Codec ID : isom
File size : 2.15 GiB
Duration : 2h 9mn
Overall bit rate : 2 365 Kbps
Writing application : Lavf58.2.103

Video
ID : 1
Format : AVC
Format/Info : Advanced Video Codec
Format profile : High@L3.1
Codec ID : avc1
Codec ID/Info : Advanced Video Coding
Duration : 2h 9mn
Bit rate mode : Variable
Bit rate : 2 227 Kbps
Width : 1 280 pixels
Height : 720 pixels
Display aspect ratio : 16:9
Frame rate mode : Variable
Frame rate : 29.819 fps
Minimum frame rate : 0.104 fps
Maximum frame rate : 30.303 fps
Color space : YUV
Chroma subsampling : 4:2:0
Bit depth : 8 bits
Scan type : Progressive
Bits/(Pixel*Frame) : 0.081
Stream size : 2.02 GiB (94%)

Audio
ID : 2
Format : AAC
Format/Info : Advanced Audio Codec
Format profile : LC
Codec ID : 40
Duration : 2h 9mn
Bit rate mode : Constant
Bit rate : 127 Kbps
Channel(s) : 2 channels
Channel positions : Front: L R
Sampling rate : 48.0 KHz
Compression mode : Lossy
Stream size : 118 MiB (5%)

 

 

 

 

 

Watch EVOLVE 103 2018 04 06 720p WEB iNDYHEEL

 

 

 

 

Watch online

 

 

Waiting finish converting video

 

 

Server 1

 

 

 

 

 

 

 

 

 

 

 

 

 

 

 

 

Server 2

 

 

 

 

 

 

 


 

 

 

 

Uploaded By Site DX-TV.com

 

 

 

open rar file to see this password

 

 

 

 

The password is : DX-TV.com

 

 

 

 

 

 

Uploaded.net + rapidgator.net

 

 

 

 

 

 

http://shrt10.com/IisR

 

 

 

 

 

 

http://shrt10.com/STiU

 

 

 

 

 

 

 

Watch EVOLVE 103 2018 04 06 720p WEB iNDYHEEL

Support HVIPS

Please Disable Ad-Block To View This site. just help us to continue this work