Watch ESPN 30 For 30 Nature Boy Ric Flair 2017

Watch ESPN 30 For 30 Nature Boy Ric Flair 2017

 

 

 

 

 

 

wwe

 

 

 

 

 

 

 

Complete name : ESPN 30 For 30 Nature Boy Ric Flair.MP4
Format : MPEG-4
Format profile : Base Media
Codec ID : isom
File size : 746 MiB
Duration : 1h 19mn
Overall bit rate : 1 309 Kbps
Encoded date : UTC 2017-11-07 10:06:09
Tagged date : UTC 2017-11-07 10:06:09

Video
ID : 1
Format : AVC
Format/Info : Advanced Video Codec
Format settings, ReFrames : 8 frames
Codec ID : avc1
Codec ID/Info : Advanced Video Coding
Duration : 1h 19mn
Bit rate mode : Variable
Bit rate : 1 209 Kbps
Maximum bit rate : 6 575 Kbps
Width : 980 pixels
Height : 552 pixels
Display aspect ratio : 16:9
Original display aspect ratio : 16:9
Frame rate mode : Variable
Frame rate : 15.000 fps
Minimum frame rate : 3.750 fps
Maximum frame rate : 15.000 fps
Color space : YUV
Chroma subsampling : 4:2:0
Bit depth : 8 bits
Scan type : Progressive
Bits/(Pixel*Frame) : 0.149
Stream size : 689 MiB (92%)
Tagged date : UTC 2017-11-07 10:06:11
Color primaries : BT.601-6 525, BT.1358 525, BT.1700 NTSC, SMPTE 170M
Transfer characteristics : BT.709-5, BT.1361
Matrix coefficients : BT.601-6 525, BT.1358 525, BT.1700 NTSC, SMPTE 170M

Audio
ID : 2
Format : AC-3
Format/Info : Audio Coding 3
Mode extension : CM (complete main)
Codec ID : ac-3
Duration : 1h 19mn
Bit rate mode : Constant
Bit rate : 112 Kbps
Channel(s) : 2 channels
Channel positions : Front: L R
Sampling rate : 48.0 KHz
Bit depth : 16 bits
Compression mode : Lossy
Stream size : 63.8 MiB (9%)
Language : English
Encoded date : UTC 2017-11-07 10:04:08
Tagged date : UTC 2017-11-07 10:06:11

 

 

 

 

 

 

Watch ESPN 30 For 30 Nature Boy Ric Flair 2017

 

 

 

 

Watch online

 

 

Waiting finish converting video

 

 

Server 1

 

 

 

 

 

 

 

 

 

 

 

 

 

 

 

 

 

 

 

 

 

 

Srver 2

 

 

 

 

 

 

 

 

 


 

 

 

 

 

 

Uploaded By Site DX-TV.com

 

 

 

open rar file to see this password

 

 

 

 

The password is : DX-TV.com

 

 

 

 

 

rapidgator.net

 

 

 

 

 

 

 

http://shrt10.com/1t0fk

 

 

 

 

 

 

 

 

Watch ESPN 30 For 30 Nature Boy Ric Flair 2017

Support HVIPS

Please Disable Ad-Block To View This site. just help us to continue this work