Watch EBI 14 The Absolutes WEB DL /720p

Watch EBI 14 The Absolutes WEB DL /720p

 

 

 

 

 

 

wwe

 

 

 

 

 

 

Complete name : EBI.14.The.Absolutes.WEB.DL.H264-SF63.mp4
Format : MPEG-4
Format profile : Base Media
Codec ID : isom
File size : 1.79 GiB
Duration : 2h 49mn
Overall bit rate : 1 509 Kbps
Writing application : Lavf56.40.101

Video
ID : 1
Format : AVC
Format/Info : Advanced Video Codec
Codec ID : avc1
Codec ID/Info : Advanced Video Coding
Duration : 2h 49mn
Bit rate mode : Variable
Bit rate : 1 422 Kbps
Width : 960 pixels
Height : 540 pixels
Display aspect ratio : 16:9
Frame rate mode : Constant
Frame rate : 29.970 fps
Color space : YUV
Chroma subsampling : 4:2:0
Bit depth : 8 bits
Scan type : Progressive
Bits/(Pixel*Frame) : 0.092
Stream size : 1.69 GiB (94%)

Audio
ID : 2
Format : AAC
Format/Info : Advanced Audio Codec
Format profile : LC
Codec ID : 40
Duration : 2h 49mn
Bit rate mode : Variable
Bit rate : 77.6 Kbps
Maximum bit rate : 83.0 Kbps
Channel(s) : 2 channels
Channel positions : Front: L R
Sampling rate : 44.1 KHz
Compression mode : Lossy
Stream size : 94.2 MiB (5%)

 

 

 

 

 

 
Complete name : EBI.14.The.Absolutes.720p.3000k.WEB.DL.H264-SF63.mp4
Format : MPEG-4
Format profile : Base Media
Codec ID : isom
File size : 3.40 GiB
Duration : 2h 49mn
Overall bit rate : 2 865 Kbps
Writing application : Lavf56.40.101

Video
ID : 1
Format : AVC
Format/Info : Advanced Video Codec
Codec ID : avc1
Codec ID/Info : Advanced Video Coding
Duration : 2h 49mn
Bit rate mode : Variable
Bit rate : 2 731 Kbps
Width : 1 280 pixels
Height : 720 pixels
Display aspect ratio : 16:9
Frame rate mode : Constant
Frame rate : 29.970 fps
Color space : YUV
Chroma subsampling : 4:2:0
Bit depth : 8 bits
Scan type : Progressive
Bits/(Pixel*Frame) : 0.099
Stream size : 3.24 GiB (95%)

Audio
ID : 2
Format : AAC
Format/Info : Advanced Audio Codec
Format profile : LC
Codec ID : 40
Duration : 2h 49mn
Bit rate mode : Variable
Bit rate : 126 Kbps
Maximum bit rate : 135 Kbps
Channel(s) : 2 channels
Channel positions : Front: L R
Sampling rate : 44.1 KHz
Compression mode : Lossy
Stream size : 152 MiB (4%)

 

 

 

 

 

 

 

 

 

 

 

 

Watch EBI 14 The Absolutes WEB DL /720p

 

 

 

 

Watch online

 

 

Waiting finish converting video

 

 

Server 1

 

 

 

 

 

 

 

 

 

 

 

 

 

 

 

 

 

 

 

 

Server 2

 

 

 

 

 

 

 

 

 

 


 

 

 

 

 

 

Srver 3

 

 

 

 

 

 

 

 

 


 

 

 

 

 

 

 

 

 

Uploaded By Site DX-TV.com

 

 

 

open rar file to see this password

 

 

 

 

The password is : DX-TV.com

 

 

 

 

400p+720p

 

 

 

Uploaded.net

 

 

 

 

 

 

 

http://shrt10.com/cses

 

 

 

 

http://shrt10.com/W2zbZccI

 

 

 

 

 

 

 

 

rapidgator.net

 

 

 

 

 

 

 

http://shrt10.com/bGxmdwCA

 

 

 

 

http://shrt10.com/1F85

 

 

 

 

 

 

 

Watch EBI 14 The Absolutes WEB DL /720p

Support HVIPS

Please Disable Ad-Block To View This site. just help us to continue this work