Watch Dragon Gate The Gate of Passion 2018 04 01 720p

Watch Dragon Gate The Gate of Passion 2018 04 01 720p

 

 

 

 

 

 

wwe

 

 

 

 

 

 

 

Complete name : Dragon Gate The Gate of Passion 2018.04.01 mp4
Format : MPEG-4
Format profile : Base Media
Codec ID : isom
File size : 3.09 GiB
Duration : 3h 27mn
Overall bit rate : 2 136 Kbps
Writing application : Lavf57.56.100

Video
ID : 1
Format : AVC
Format/Info : Advanced Video Codec
Format profile : Main@L3.1
Codec ID/Info : Advanced Video Coding
Duration : 3h 27mn
Duration_LastFrame : 1ms /
Bit rate mode : Variable
Bit rate : 2 002 Kbps
Width : 1 280 pixels
Height : 720 pixels
Display aspect ratio : 16:9
Frame rate mode : Constant
Frame rate : 30.000 fps
Color space : YUV
Chroma subsampling : 4:2:0
Bit depth : 8 bits
Scan type : Progressive
Bits/(Pixel*Frame) : 0.072
Stream size : 2.89 GiB (94%)
Writing library : Zencoder Video Encoding System

Audio
ID : 2
Format : AAC
Format/Info : Advanced Audio Codec
Format profile : LC
Codec ID : 40
Duration : 3h 27mn
Bit rate mode : Constant
Bit rate : 128 Kbps
Channel(s) : 2 channels
Channel positions : Front: L R
Sampling rate : 48.0 KHz
Compression mode : Lossy
Stream size : 190 MiB (6%)

 

 

 

 
Dragon Gate The Gate of Passion
Date: 2018.04.01
Venue: Kobe Sambo Hall

 

 

 

 

 

 

 

 

 

 

 

 

Watch Dragon Gate The Gate of Passion 2018 04 01 720p

 

 

 

 

Watch online

 

 

Waiting finish converting video

 

 

Server 1

 

 

 

 

 

 

 

 

 

 

 

 

 

 

 

 

Server 2

 

 

 

 

 

 


 

 

 

 

 

Uploaded By Site DX-TV.com

 

 

 

open rar file to see this password

 

 

 

 

The password is : DX-TV.com

 

 

 

 

720p

 

 

 

 

 

Uploaded.net + rapidgator.net

 

 

 

 

 

 

http://shrt10.com/Wee9Wnf

 

 

 

 

 

 

http://shrt10.com/rxaogpOj

 

 

 

 

 

 

 

 

Watch Dragon Gate The Gate of Passion 2018 04 01 720p

Support HVIPS

Please Disable Ad-Block To View This site. just help us to continue this work