Watch Dragon Gate 2017 11 08 The Gate of Evolution Day 3 mp4

Watch Dragon Gate 2017 11 08 The Gate of Evolution Day 3 mp4

 

 

 

 

 

 

wwe

 

 

 

 

 

 

Complete name : Dragon.Gate.2017.11.08.The.Gate.of.Evolution.Day.3.mp4
Format : MPEG-4
Format profile : Base Media
Codec ID : isom
File size : 1.56 GiB
Duration : 3h 44mn
Overall bit rate : 995 Kbps
Writing application : Lavf57.56.101

Video
ID : 1
Format : AVC
Format/Info : Advanced Video Codec
Codec ID : avc1
Codec ID/Info : Advanced Video Coding
Duration : 3h 55mn
Bit rate mode : Variable
Bit rate : 819 Kbps
Width : 832 pixels
Height : 468 pixels
Display aspect ratio : 16:9
Frame rate mode : Variable
Color space : YUV
Chroma subsampling : 4:2:0
Bit depth : 8 bits
Scan type : Progressive
Stream size : 1.35 GiB (86%)

Audio
ID : 2
Format : AAC
Format/Info : Advanced Audio Codec
Format profile : LC
Codec ID : 40
Duration : 3h 44mn
Bit rate mode : Constant
Bit rate : 128 Kbps
Channel(s) : 2 channels
Channel positions : Front: L R
Sampling rate : 44.1 KHz
Compression mode : Lossy
Stream size : 206 MiB (13%)

 

 

 

Watch Dragon Gate 2017 11 08 The Gate of Evolution Day 3 mp4

 

 

 

 

Watch online

 

 

Waiting finish converting video

 

 

Server 1

 

 

 

 

 

 

 

 

 

 

 

 

 

 

 

 

 

Srver 2

 

 

 

 

 

 

 

 


 

 

 

 

 

 

 

 

Server 3

 

 

 

 

 

 

 

 


 

 

 

 

 

 

 

 

Uploaded By Site DX-TV.com

 

 

 

open rar file to see this password

 

 

 

 

The password is : DX-TV.com

 

 

 

 

 

 

 

 

Uploaded.net

 

 

 

 

 

 

 

http://shrt10.com/BITw0

 

 

 

 

 

 

 

 

 

 

 

rapidgator.net

 

 

 

 

 

 

http://shrt10.com/bRWQGQct

 

 

 

 

 

 

 

 

 

 

Watch Dragon Gate 2017 11 08 The Gate of Evolution Day 3 mp4

Support HVIPS

Please Disable Ad-Block To View This site. just help us to continue this work