Watch / Download WWE NXT TakeOver New Orleans 2018 04 08 WEB HEEL /720p

Watch / Download WWE NXT TakeOver New Orleans 2018 04 08 WEB HEEL /720p

 

 

 

 

 

 

wwe

 

 

 

 

 

Complete name : WWE.NXT.TakeOver.New.Orleans.WEB.h264-HEEL.mp4
Format : MPEG-4
Format profile : Base Media
Codec ID : isom
File size : 2.36 GiB
Duration : 3h 6mn
Overall bit rate : 1 806 Kbps
Writing application : Lavf58.2.103

Video
ID : 1
Format : AVC
Format/Info : Advanced Video Codec
Codec ID : avc1
Codec ID/Info : Advanced Video Coding
Duration : 3h 6mn
Bit rate mode : Constant
Bit rate : 1 704 Kbps
Width : 896 pixels
Height : 504 pixels
Display aspect ratio : 16:9
Frame rate mode : Constant
Frame rate : 29.970 fps
Color space : YUV
Chroma subsampling : 4:2:0
Bit depth : 8 bits
Scan type : Progressive
Bits/(Pixel*Frame) : 0.126
Stream size : 2.22 GiB (94%)

Audio
ID : 2
Format : AAC
Format/Info : Advanced Audio Codec
Format profile : LC
Codec ID : 40
Duration : 3h 6mn
Bit rate mode : Variable
Bit rate : 93.5 Kbps
Maximum bit rate : 97.5 Kbps
Channel(s) : 2 channels
Channel positions : Front: L R
Sampling rate : 48.0 KHz
Compression mode : Lossy
Stream size : 125 MiB (5%)
Language : English
 

 

 

 

 

 

 

 

 

 

Title: WWE.NXT.TakeOver.New.Orleans.720p.WEB.h264-HEEL
Released: 2018.04.07
Source: WWE Network
Resolution: 1280 x 720 @ 29.970 FPS
Video: H.264 @ 4500 kbps
Audio: AAC @ 128 kbps
Size: 5.88 GB
Runtime: 3h 07mn
 

 

 

 

 

 

 

 

 

Watch / Download WWE NXT TakeOver New Orleans 2018 04 08 WEB HEEL /720p

 

 

 

 

Watch online

 

 

Waiting finish converting video

 

 

Server 1

 

 

 

 

 

 

 

 

 

 

 

 

 

Server 2

 

 

 

 

 

 


 

 

 

Uploaded By Site DX-TV.com

 

 

 

open rar file to see this password

 

 

 

 

The password is : DX-TV.com

 

 

 

 

400p+720p

 

 

 

 

 

Uploaded.net + rapidgator.net

 

 

 

 

 

http://shrt10.com/EVcL9C0

 

http://shrt10.com/pXNOYjn

 

http://shrt10.com/0coo

 

http://shrt10.com/Dd419EKk

 

http://shrt10.com/QGIPN

 

http://shrt10.com/phsd

 

 

 

 

 

 

 

 

 

 

 

 

 

 

 

 

Watch / Download WWE NXT TakeOver New Orleans 2018 04 08 WEB HEEL /720p