Watch / Download Wrestlecon Pancakes and Piledrivers 2018 04 07 720p WEB NCMP

Watch / Download Wrestlecon Pancakes and Piledrivers 2018 04 07 720p WEB NCMP

 

 

 

 

 

wwe

 

 

 

 

 

 

 
Complete name : Pancakes.and.Piledrivers.2018.04.07.Wrestlecon.720p.WEB.h264-NCMP.mp4
Format : MPEG-4
Format profile : Base Media
Codec ID : isom
File size : 2.52 GiB
Duration : 2h 15mn
Overall bit rate : 2 663 Kbps
Writing application : Lavf55.12.100

Video
ID : 2
Format : AVC
Format/Info : Advanced Video Codec
Format settings, ReFrames : 3 frames
Codec ID : avc1
Codec ID/Info : Advanced Video Coding
Duration : 2h 15mn
Bit rate mode : Variable
Bit rate : 2 590 Kbps
Width : 1 280 pixels
Height : 720 pixels
Display aspect ratio : 16:9
Frame rate mode : Constant
Frame rate : 29.970 fps
Color space : YUV
Chroma subsampling : 4:2:0
Bit depth : 8 bits
Scan type : Progressive
Bits/(Pixel*Frame) : 0.094
Stream size : 2.45 GiB (97%)

Audio
ID : 1
Format : AAC
Format/Info : Advanced Audio Codec
Format profile : LC
Codec ID : 40
Duration : 2h 15mn
Bit rate mode : Constant
Bit rate : 66.15 Kbps
Channel(s) : 2 channels
Channel positions : Front: L R
Sampling rate : 48.0 KHz
Compression mode : Lossy
Stream size : 64.9 MiB (3%)

 

 

 

 

 
Pancakes and Piledrivers: Wrestlecon
Video Duration: 02:15:42

The Wrestling Revolver, AAW, and Fight Club Pro present Pancakes and Piledrivers, held April 7th, 2018 at the Sugar Mill, New Orleans, LA.

AAW Heavyweight Championship
ACH (c) vs Trevor Lee

Jeff Cobb VS Shane Strickland

Eddie Kingston VS Juice Robinson

Jessica Havoc VS Kimber Lee VS Meiko Satomura

OVE VS Janela, Foxx, and Cage

Colt Cabana & Marty Derosa VS Joey Ryan & Session Moth

Lucha Brothers VS Teddy Hart & Jack Evans

Triple Threat Ladder Match for the AAW & Revolver Championships
Besties VS Aussie Open VS Wentz/Xavier

 

 

 

 

 

 

 

Watch / Download Wrestlecon Pancakes and Piledrivers 2018 04 07 720p WEB NCMP

 

 

 

 

Watch online

 

 

Waiting finish converting video

 

 

Server 1

 

 

 

 

 

 

 

 

 

 

 

 

 

Server 2

 

 

 

 

 

 


 

 

 

 

 

Uploaded By Site DX-TV.com

 

 

 

open rar file to see this password

 

 

 

 

The password is : DX-TV.com

 

 

 

 

720p

 

 

 

 

 

Uploaded.net + rapidgator.net

 

 

 

 

 

 

http://shrt10.com/7ROT

 

 

 

 

http://shrt10.com/XbXen5g

 

 

 

 

 

 

Watch / Download Wrestlecon Pancakes and Piledrivers 2018 04 07 720p WEB NCMP