Watch / Download UFC 223 Khabib VS Iaquinta PPV HDTV x264 DX-TV /720p RU /ENG

Watch / Download UFC 223 Khabib VS Iaquinta PPV HDTV x264 DX-TV /720p RU /ENG

 

 

 

 

 

wwe

 

 

 

 

 

 

 

Complete name :UFC 223 Khabib VS Iaquinta PPV HDTV x264 DX-TV.mp4
Format : MPEG-4
Format profile : Base Media / Version 2
Codec ID : mp42
File size : 2.37 GiB
Duration : 3h 27mn
Overall bit rate : 1 634 Kbps

Video
ID : 1
Format : AVC
Format/Info : Advanced Video Codec
Codec ID/Info : Advanced Video Coding
Duration : 3h 27mn
Bit rate mode : Variable
Bit rate : 1 499 Kbps
Width : 720 pixels
Height : 480 pixels
Display aspect ratio : 3:2
Frame rate mode : Constant
Frame rate : 30.000 fps
Standard : NTSC
Color space : YUV
Chroma subsampling : 4:2:0
Bit depth : 8 bits
Scan type : Progressive
Bits/(Pixel*Frame) : 0.145
Stream size : 2.17 GiB (92%)
Language : English

Audio
ID : 2
Format : AAC
Format/Info : Advanced Audio Codec
Format profile : LC
Codec ID : 40
Duration : 3h 27mn
Bit rate mode : Constant
Bit rate : 128 Kbps
Channel(s) : 2 channels
Channel positions : Front: L R
Sampling rate : 44.1 KHz
Compression mode : Lossy
Stream size : 190 MiB (8%)
Language :RU /ENG

 

 

 

 

 

 

 
[EVENT]………..: UFC 223 PPV 720p HDTV x264 DX-TV mp4
[RELEASED]……..: 2018.04.08
[SOURCE]……….: HDTV 1080i
[CONTAINER]…….: mp4
[SIZE]…………: 4.54 GB
[Capper Group]….: DX-TV
[Duration]……..: 3 h 27 m
[RESOLUTION]……: 1280 x 720 {16:9}@ 29.970 FPS
[VIDEO]………..: x264 @ 4000 kbps
[AUDIO]………..: AAC @ 160 kbps
[language]……..: RU /ENG

 

 

 

 

 

Watch / Download UFC 223 Khabib VS Iaquinta PPV HDTV x264 DX-TV /720p RU /ENG

 

Watch online

 

 

Waiting finish converting video

 

 

Server 1

 

 

 

 

 

 

 

 

 

 

 

 

Server 2

 

 

 

 

 

 


 

 

Uploaded By Site DX-TV.com

 

 

 

open rar file to see this password

 

 

 

 

The password is : DX-TV.com

 

 

 

 

400p+720p

 

 

 

 

 

Uploaded.net + rapidgator.net

 

 

 

http://shrt10.com/Ewrv6J

 

 

 

 http://shrt10.com/XsqWiDWt

 

 

 

 

 

 

http://shrt10.com/2P1wfV

 

 

http://shrt10.com/0z9OnH

 

 

http://shrt10.com/NoLvyCt

 

 

http://shrt10.com/nJo1OYAS

 

 

 

 

 

 

 

Watch / Download UFC 223 Khabib VS Iaquinta PPV HDTV x264 DX-TV /720p RU /ENG

Support HVIPS

Please Disable Ad-Block To View This site. just help us to continue this work