Watch / Download UFC 223 720p HDTV KOENiG

Watch / Download UFC 223 720p HDTV KOENiG

 

 

 

 

 

 

wwe

 

 

 

 

 

 

Complete name : UFC.223.720p.HDTV.x264-KOENiG.mkv
Format : Matroska
File size : 5.04 GiB
Duration : 3h 24mn
Overall bit rate : 3 522 Kbps

Video
ID : 1
Format : AVC
Format/Info : Advanced Video Codec
Duration : 3h 24mn
Bit rate : 3 260 Kbps
Width : 1 280 pixels
Height : 720 pixels
Display aspect ratio : 16:9
Frame rate mode : Variable
Frame rate : 50.000 fps
Color space : YUV
Chroma subsampling : 4:2:0
Bit depth : 8 bits
Scan type : Progressive
Bits/(Pixel*Frame) : 0.071
Stream size : 4.66 GiB (93%)

Audio
ID : 2
Format version : Version 1
Format profile : Layer 2
Codec ID : A_MPEG/L2
Codec ID/Hint : MP2
Duration : 3h 24mn
Bit rate mode : Constant
Bit rate : 192 Kbps
Channel(s) : 2 channels
Sampling rate : 48.0 KHz
Compression mode : Lossy
Stream size : 281 MiB (5%)
Language : English

 

 

 

 

 

 

Watch / Download UFC 223 720p HDTV KOENiG

 

 

 

 

Uploaded By Site DX-TV.com

 

 

 

open rar file to see this password

 

 

 

 

The password is : DX-TV.com

 

 

 

 

720p

 

 

 

 

 

Uploaded.net + rapidgator.net

 

 

 

 

 

http://shrt10.com/IbT8vU2

 

 

http://shrt10.com/OBQ7T

 

 

http://shrt10.com/O1D0GaWv

 

 

http://shrt10.com/5HsH36hE

 

 

 

 

 

 

 

Watch / Download UFC 223 720p HDTV KOENiG

Support HVIPS

Please Disable Ad-Block To View This site. just help us to continue this work