Watch / Download Titan FC 49 Gomez vs Soares WEB SF63 /720p

Watch / Download Titan FC 49 Gomez vs Soares WEB SF63 /720p

 

 

 

 

 

 

wwe

 

 

 

 

 

Complete name : Titan.FC.49.Gomez.vs.Soares.WEB.DL.H264-SF63.mp4
Format : MPEG-4
Format profile : Base Media
Codec ID : isom
File size : 2.87 GiB
Duration : 4h 28mn
Overall bit rate : 1 528 Kbps

Video
ID : 1
Format : AVC
Format/Info : Advanced Video Codec
Codec ID : avc1
Codec ID/Info : Advanced Video Coding
Duration : 4h 28mn
Bit rate mode : Variable
Bit rate : 1 441 Kbps
Width : 960 pixels
Height : 540 pixels
Display aspect ratio : 16:9
Frame rate mode : Constant
Frame rate : 29.970 fps
Color space : YUV
Chroma subsampling : 4:2:0
Bit depth : 8 bits
Scan type : Progressive
Bits/(Pixel*Frame) : 0.093
Stream size : 2.70 GiB (94%)

Audio
ID : 2
Format : AAC
Format/Info : Advanced Audio Codec
Format profile : LC
Codec ID : 40
Duration : 4h 28mn
Bit rate mode : Variable
Bit rate : 77.6 Kbps
Maximum bit rate : 82.7 Kbps
Channel(s) : 2 channels
Channel positions : Front: L R
Sampling rate : 44.1 KHz
Compression mode : Lossy
Stream size : 149 MiB (5%)

 

 

 

 

 

 

 

 

 
Titan.FC.49.Gomez.vs.Soares.720p.WEB.DL.H264-SF63
Encoder: @Sajjad Fazli
Source: UFC.TV April 6, 2018
Video: MPEG4 (H264) 1280×720 2789kbps 29.970fps
Audio: AAC 44100Hz stereo 126kbps
Duration: 4h 28mn 40s
File size: 5.49 GiB
 

 

 

 

 

Watch / Download Titan FC 49 Gomez vs Soares WEB SF63 /720p

 

 

 

 

Watch online

 

 

Waiting finish converting video

 

 

Server 1

 

 

 

 

 

 

 

 

 

 

 

 

Server 2

 

 

 

 

 


 

 

 

 

Uploaded By Site DX-TV.com

 

 

 

open rar file to see this password

 

 

 

 

The password is : DX-TV.com

 

 

 

 

400p+720p

 

 

 

 

 

Uploaded.net + rapidgator.net

 

 

 

 

 

 

http://shrt10.com/4VLj4P

 

 

http://shrt10.com/ZF0a

 

 

http://shrt10.com/Ron5NkDF

 

 

http://shrt10.com/PYP2q

 

 

http://shrt10.com/s7a1uA

 

 

http://shrt10.com/EMQmbA0

 

 

 

 

 

 

 

 

Watch / Download Titan FC 49 Gomez vs Soares WEB SF63 /720p