Watch / Download ROH Supercard of Honor XII WebRip Miztery

Watch / Download ROH Supercard of Honor XII WebRip Miztery

 

 

 

 

 

 

wwe

 

 

 

 

 

Complete name : ROH.Supercard.of.Honor.XII.WebRip-Miztery.mp4
Format : MPEG-4
Format profile : Base Media / Version 2
Codec ID : mp42
File size : 1.75 GiB
Duration : 4h 8mn
Overall bit rate : 1 007 Kbps
Encoded date : UTC 2018-04-08 08:05:11
Tagged date : UTC 2018-04-08 09:29:20

Video
ID : 1
Format : AVC
Format/Info : Advanced Video Codec
Codec ID : avc1
Codec ID/Info : Advanced Video Coding
Duration : 4h 8mn
Bit rate mode : Variable
Bit rate : 906 Kbps
Width : 704 pixels
Height : 400 pixels
Display aspect ratio : 16:9
Frame rate mode : Constant
Frame rate : 29.970 fps
Color space : YUV
Chroma subsampling : 4:2:0
Bit depth : 8 bits
Scan type : Progressive
Bits/(Pixel*Frame) : 0.107
Stream size : 1.57 GiB (90%)

Audio
ID : 2
Format : AAC
Format/Info : Advanced Audio Codec
Format profile : LC
Codec ID : 40
Duration : 4h 8mn
Bit rate mode : Variable
Bit rate : 96.0 Kbps
Maximum bit rate : 206 Kbps
Channel(s) : 2 channels
Channel positions : Front: L R
Sampling rate : 44.1 KHz
Compression mode : Lossy
Stream size : 170 MiB (10%)
Encoded date : UTC 2018-04-08 08:05:11
Tagged date : UTC 2018-04-08 09:29:15

 

 

 

Watch / Download ROH Supercard of Honor XII WebRip Miztery

 

 

 

 

Watch online

 

 

Waiting finish converting video

 

 

Server 1

 

 

 

 

 

 


 

 

 

 

 

 

Server 2

 

 

 

 

 

 

 

 

 

 

 

 

 

 

 

 

 

Uploaded.net + rapidgator.net

 

 

 

 

 

http://shrt10.com/oc1g

 

 

 

 

http://shrt10.com/BvlOC3

 

 

 

 

 

 

 

 

Watch / Download ROH Supercard of Honor XII WebRip Miztery

Support HVIPS

Please Disable Ad-Block To View This site. just help us to continue this work