Watch /Download NJPW On AXS TV 2017 08 25

Watch /Download NJPW On AXS TV 2017 08 25

 

 

 

 

 

 

wwe

 

 

 

 

 

Complete name : new wrestling japan axs 8.25.17 G1C27.mp4
Format : MPEG-4
Format profile : Base Media
Codec ID : isom
File size : 1 005 MiB
Duration : 53mn 11s
Overall bit rate : 2 640 Kbps
Writing application : Lavf56.40.101

Video
ID : 1
Format : AVC
Format/Info : Advanced Video Codec
Format settings, ReFrames : 3 frames
Codec ID : avc1
Codec ID/Info : Advanced Video Coding
Duration : 53mn 11s
Bit rate mode : Variable
Bit rate : 2 501 Kbps
Width : 1 280 pixels
Height : 720 pixels
Display aspect ratio : 16:9
Frame rate mode : Constant
Frame rate : 59.940 fps
Color space : YUV
Chroma subsampling : 4:2:0
Bit depth : 8 bits
Scan type : Progressive
Bits/(Pixel*Frame) : 0.045
Stream size : 951 MiB (95%)

Audio
ID : 2
Format : AAC
Format/Info : Advanced Audio Codec
Format profile : LC
Codec ID : 40
Duration : 53mn 11s
Bit rate mode : Constant
Bit rate : 128 Kbps
Channel(s) : 2 channels
Channel positions : Front: L R
Sampling rate : 44.1 KHz
Compression mode : Lossy
Stream size : 48.7 MiB (5%)

 

 

 

 

 

 

 

 

 

 

 

 

 

 

 

 

 

 

 

Watch /Download NJPW On AXS TV 2017 08 25

 

 

 

 

Watch online

 

 

Waiting finish converting video

 

 

Server 1

 

 

 

 

 

 

 

 

 

 

 

 

 

 

 

 

 

 

 

 

Server 2

 

 

 

 

 

 

 

 


 

 

 

 

 

 

 

 

 

Uploaded By Site DX-TV.com

 

 

 

open rar file to see this password

 

 

 

 

The password is : DX-TV.com

 

 

 

 

 

Uploaded.net

 

 

 

 

 

 

 

 

http://shink.in/K5X7J

 

 

 

 

 

 

 

rapidgator.net

 

 

 

 

 

 

 

http://shink.in/D2cQr

 

 

 

 

 

 

 

 

Watch /Download NJPW On AXS TV 2017 08 25

Support HVIPS

Please Disable Ad-Block To View This site. just help us to continue this work