Watch /Download MLW Fusion 2018 07 20 Episode 14 720p WEB NCMP

Watch /Download MLW Fusion 2018 07 20 Episode 14 720p WEB NCMP

 

 

 

 


 

 

 

dx-tv.com

 

 

 

 
Complete name : MLW.Fusion.2018.07.20.Episode.14.720p.WEB.h264-NCMP.mp4
Format : MPEG-4
Format profile : Base Media / Version 2
Codec ID : mp42
File size : 812 MiB
Duration : 49mn 39s
Overall bit rate : 2 286 Kbps
Encoded date : UTC 2018-07-20 17:50:59
Tagged date : UTC 2018-07-20 17:50:59

Video
ID : 1
Format : AVC
Format/Info : Advanced Video Codec
Codec ID : avc1
Codec ID/Info : Advanced Video Coding
Duration : 49mn 39s
Bit rate mode : Variable
Bit rate : 2 156 Kbps
Width : 1 280 pixels
Height : 720 pixels
Display aspect ratio : 16:9
Frame rate mode : Variable
Frame rate : 23.976 fps
Minimum frame rate : 23.974 fps
Maximum frame rate : 23.981 fps
Color space : YUV
Chroma subsampling : 4:2:0
Bit depth : 8 bits
Scan type : Progressive
Bits/(Pixel*Frame) : 0.098
Stream size : 766 MiB (94%)

Audio
ID : 2
Format : AAC
Format/Info : Advanced Audio Codec
Format profile : LC
Codec ID : 40
Duration : 49mn 39s
Bit rate mode : Variable
Bit rate : 126 Kbps
Channel(s) : 2 channels
Channel positions : Front: L R
Sampling rate : 44.1 KHz
Compression mode : Lossy
Stream size : 44.6 MiB (5%)
Language : English
Encoded date : UTC 2018-07-20 17:50:59
Tagged date : UTC 2018-07-20 17:50:59

 

 

 

 

 

Watch /Download MLW Fusion 2018 07 20 Episode 14 720p WEB NCMP

 

 

 

 

Watch online

 

 

Waiting finish converting video

 

 

Server 1

 

 

 

 

 

 

 

 

 

 

 

 

 

 

 

 

 

 

Server 2

 

 

 

 

 

 


 

 

 

 

 

 

 

Uploaded By Site DX-TV.com

 

 

 

open rar file to see this password

 

 

 

 

The password : DX-TV.com

 

 

 

 

 

Uploaded.net + rapidgator.net

 

 

 

 

 

 
http://shrt10.com/DI3b5k

 

 

 
http://shrt10.com/YRRDbX

 

 

 

 

 

 

 

 

 

 

Watch /Download MLW Fusion 2018 07 20 Episode 14 720p WEB NCMP

This site uses Akismet to reduce spam. Learn how your comment data is processed.

Support HVIPS

Please Disable Ad-Block To View This site. just help us to continue this work