Watch /Download IPW UK 2018 07 22 Fight For Your Right 720p WEB NCMP

Watch /Download IPW UK 2018 07 22 Fight For Your Right 720p WEB NCMP

 

 

 

 


dx-tv.com

 

 

 

 

 

 

 

Complete name : IPW.UK.2018.07.22.Fight.For.Your.Right.720p.WEB.h264-NCMP.mp4
Format : MPEG-4
Format profile : Base Media
Codec ID : isom
File size : 2.72 GiB
Duration : 2h 25mn
Overall bit rate : 2 684 Kbps

Video
ID : 2
Format : AVC
Format/Info : Advanced Video Codec
Codec ID : avc1
Codec ID/Info : Advanced Video Coding
Duration : 2h 25mn
Bit rate mode : Variable
Bit rate : 2 586 Kbps
Width : 1 280 pixels
Height : 720 pixels
Display aspect ratio : 16:9
Frame rate mode : Constant
Frame rate : 29.970 fps
Color space : YUV
Chroma subsampling : 4:2:0
Bit depth : 8 bits
Scan type : Progressive
Bits/(Pixel*Frame) : 0.094
Stream size : 2.62 GiB (96%)

Audio
ID : 1
Format : AAC
Format/Info : Advanced Audio Codec
Format profile : LC
Codec ID : 40
Duration : 2h 25mn
Bit rate mode : Constant
Bit rate : 90.5 Kbps
Channel(s) : 2 channels
Channel positions : Front: L R
Sampling rate : 48.0 KHz
Compression mode : Lossy
Stream size : 93.9 MiB (3%)

 

 

Watch /Download IPW UK 2018 07 22 Fight For Your Right 720p WEB NCMP

 

 

 

 

Watch online

 

 

Waiting finish converting video

 

 

Server 1

 

 

 

 

 

 

 

 

 

 

 

 

 

 

 

 

 

Server 2

 

 

 

 

 

 

 


 

 

 

Uploaded By Site DX-TV.com

 

 

 

open rar file to see this password

 

 

 

 

The password : DX-TV.com

 

 

 

 

Uploaded.net + rapidgator.net

 

 

 

 

 

 

http://shrt10.com/WffyWe

 

 

 

http://shrt10.com/6ooj8O

 

 

 

 

 

 

Watch /Download IPW UK 2018 07 22 Fight For Your Right 720p WEB NCMP

This site uses Akismet to reduce spam. Learn how your comment data is processed.

Support HVIPS

Please Disable Ad-Block To View This site. just help us to continue this work