Watch /Download iMPACT Wrestling 2018 07 26 HDTV Star mp4

Watch /Download iMPACT Wrestling 2018 07 26 HDTV Star mp4

 

 

 

 


 

dx-tv.com

 

 

 

 

 

 

 
Complete name : iMPACT.Wrestling.2018.07.26.HDTV.x264-Star.mp4
Format : MPEG-4
Format profile : Base Media / Version 2
Codec ID : mp42
File size : 961 MiB
Duration : 1h 31mn
Overall bit rate : 1 471 Kbps
Encoded date : UTC 2018-07-26 14:18:32
Tagged date : UTC 2018-07-26 14:18:32

Video
ID : 1
Format : AVC
Format/Info : Advanced Video Codec
Codec ID : avc1
Codec ID/Info : Advanced Video Coding
Duration : 1h 31mn
Bit rate mode : Variable
Bit rate : 1 300 Kbps
Width : 712 pixels
Height : 400 pixels
Display aspect ratio : 16:9
Frame rate mode : Constant
Frame rate : 29.970 fps
Color space : YUV
Chroma subsampling : 4:2:0
Bit depth : 8 bits
Scan type : Progressive
Bits/(Pixel*Frame) : 0.152
Stream size : 852 MiB (89%)

Audio
ID : 2
Format : AAC
Format/Info : Advanced Audio Codec
Format profile : LC
Codec ID : 40
Duration : 1h 31mn
Bit rate mode : Variable
Bit rate : 160 Kbps
Channel(s) : 2 channels
Channel positions : Front: L R
Sampling rate : 48.0 KHz
Compression mode : Lossy
Stream size : 104 MiB (11%)
Title : Stereo
Encoded date : UTC 2018-07-26 14:18:32
Tagged date : UTC 2018-07-26 14:18:32

 

 

 

Watch /Download iMPACT Wrestling 2018 07 26 HDTV Star mp4

 

 

 

 

Watch online

 

 

Waiting finish converting video

 

 

Server 1

 

 

 

 

 

 

 

 

 

 

 

 

 

 

 

 

Server 2

 

 

 

 

 

 

 


 

 

 

 

 

 

Uploaded By Site DX-TV.com

 

 

 

open rar file to see this password

 

 

 

 

The password : DX-TV.com

 

 

 

 

Uploaded.net + rapidgator.net

 

 

 

 

 

 

http://shrt10.com/xgAC0i

 

 

 

 

 

http://shrt10.com/ltHn500U

 

 

 

 

 

Watch /Download iMPACT Wrestling 2018 07 26 HDTV Star mp4

This site uses Akismet to reduce spam. Learn how your comment data is processed.

Support HVIPS

Please Disable Ad-Block To View This site. just help us to continue this work