Watch /Download Fight Nights Global 74 540p mp4 -Lang Russ

Watch /Download Fight Nights Global 74 540p mp4 -Lang Russ

 

 

 

 

 

 

 

 

 

 

 

 

wwe

 

 

 

 

 

 

 

Complete name : Fight Nights Global 74 540p.mp4
Format : MPEG-4
Format profile : Base Media / Version 2
Codec ID : mp42
File size : 1.48 GiB
Duration : 2h 6mn
Overall bit rate : 1 672 Kbps
Encoded date : UTC 2017-10-01 09:56:23
Tagged date : UTC 2017-10-01 11:08:29
Writing application : HandBrake 0.9.8 2012071700

Video
ID : 1
Format : AVC
Format/Info : Advanced Video Codec
Format settings, ReFrames : 4 frames
Codec ID : avc1
Codec ID/Info : Advanced Video Coding
Duration : 2h 6mn
Bit rate mode : Variable
Bit rate : 1 500 Kbps
Width : 960 pixels
Height : 540 pixels
Display aspect ratio : 16:9
Frame rate mode : Variable
Frame rate : 25.000 fps
Minimum frame rate : 12.500 fps
Maximum frame rate : 25.000 fps
Color space : YUV
Chroma subsampling : 4:2:0
Bit depth : 8 bits
Scan type : Progressive
Bits/(Pixel*Frame) : 0.116
Stream size : 1.33 GiB (90%)
Writing library : x264 core 120

Audio
ID : 2
Format : AAC
Format/Info : Advanced Audio Codec
Format profile : LC
Codec ID : 40
Duration : 2h 6mn
Bit rate mode : Variable
Bit rate : 160 Kbps
Maximum bit rate : 201 Kbps
Channel(s) : 2 channels
Channel positions : Front: L R
Sampling rate : 48.0 KHz
Compression mode : Lossy
Stream size : 145 MiB (10%)
Language : Russian
Encoded date : UTC 2017-10-01 09:56:23
Tagged date : UTC 2017-10-01 11:08:28

 

 

 

 

 

 

 

 

 

 

Watch /Download Fight Nights Global 74 540p mp4 -Lang Russ

 

 

 

 

Watch online

 

 

 

 

 

Waiting finish converting video

 

 

 

 

 

Server 1

 

 

 

 

 

 

 

 

 

 

 

 

 

 

 

 

 

 

 

 

 

 

 

 

Server 2

 

 

 

 

 

 

 

 

 

 


 

 

 

 

 

 

 

 

 

 

 

 

 

Uploaded By Site : Dx-tv.com

 

 

 

 

 

 

Open rar file to see password

 

 

 

 

Password : dx-tv.com

 

 

 

 

 

540p

 

 

 

 

 

Uploaded+rapidgator

 

 

 

 

 

http://shrt10.com/0qL0xa

 

 

 

 

 

http://shrt10.com/0Jbcpsb

 

 

 

 

 

Watch /Download Fight Nights Global 74 540p mp4 -Lang Russ

Support HVIPS

Please Disable Ad-Block To View This site. just help us to continue this work