Watch / Download BJW Ikkitosen Strong Climb 2018 03 28

Watch / Download BJW Ikkitosen Strong Climb 2018 03 28

 

 

 

 

 

 

wwe

 

 

 

 

 

 

 
Complete name : (2018.03.28) BJW Ikkitosen~Strong Climb.mp4
Format : MPEG-4
Format profile : Base Media / Version 2
Codec ID : mp42
File size : 649 MiB
Duration : 2h 47mn
Overall bit rate : 541 Kbps

Video
ID : 1
Format : AVC
Format/Info : Advanced Video Codec
Format profile : Baseline@L3.0
Codec ID/Info : Advanced Video Coding
Duration : 2h 47mn
Bit rate mode : Variable
Bit rate : 442 Kbps
Maximum bit rate : 1 516 Kbps
Width : 640 pixels
Height : 360 pixels
Display aspect ratio : 16:9
Frame rate mode : Constant
Frame rate : 30.000 fps
Color space : YUV
Chroma subsampling : 4:2:0
Bit depth : 8 bits
Scan type : Progressive
Bits/(Pixel*Frame) : 0.064
Stream size : 531 MiB (82%)
ID : 2
Format : AAC
Format/Info : Advanced Audio Codec
Format profile : LC
Codec ID : 40
Duration : 2h 47mn
Bit rate mode : Variable
Bit rate : 96.0 Kbps
Maximum bit rate : 103 Kbps
Channel(s) : 2 channels
Channel positions : Front: L R
Sampling rate : 44.1 KHz
Compression mode : Lossy
Stream size : 115 MiB (18%)

 

 

 

 

 

Watch / Download BJW Ikkitosen Strong Climb 2018 03 28

 

 

 

 

Watch online

 

 

Waiting finish converting video

 

 

Server 1

 

 

 

 

 

 

 

 

 

 

 

 

 

 

 

 

Server 2

 

 

 

 

 

 


 

 

 

 

 

 

Uploaded By Site DX-TV.com

 

 

 

open rar file to see this password

 

 

 

 

The password is : DX-TV.com

 

 

 

 

 

 

 

 

Uploaded.net + rapidgator.net

 

 

 

 

 

 

http://shrt10.com/20xNZL

 

 

 

 

 

 

http://shrt10.com/mRYgg18b

 

 

 

 

 

 

 

 

Watch / Download BJW Ikkitosen Strong Climb 2018 03 28

Leave a Reply

Be the First to Comment!

  Subscribe  
Notify of
Support HVIPS

Please Disable Ad-Block To View This site. just help us to continue this work