Watch Developmentally Speaking with Pete Gas and Ugene

Watch Developmentally Speaking with Pete Gas and Ugene

 

 

 

 

 

 

wwe

 

 

 

 

 

 

 

Developmentally Speaking with Pete Gas and Ugene.mp4
Format : MPEG-4
Format profile : Base Media
Codec ID : isom
File size : 819 MiB
Duration : 1h 11mn
Overall bit rate : 1 605 Kbps
Encoded date : UTC 2017-11-23 00:46:32
Tagged date : UTC 2017-11-23 00:46:32
Writing application : Lavf56.36.100

Video
ID : 2
Format : AVC
Format/Info : Advanced Video Codec
Codec ID : avc1
Codec ID/Info : Advanced Video Coding
Duration : 1h 11mn
Bit rate mode : Variable
Bit rate : 1 495 Kbps
Width : 854 pixels
Height : 480 pixels
Display aspect ratio : 16:9
Frame rate mode : Constant
Frame rate : 29.970 fps
Color space : YUV
Chroma subsampling : 4:2:0
Bit depth : 8 bits
Scan type : Progressive
Bits/(Pixel*Frame) : 0.122
Stream size : 763 MiB (93%)
Writing library : Zencoder Video Encoding System
Encoded date : UTC 2017-11-23 00:46:32
Tagged date : UTC 2017-11-23 00:46:32
Color primaries : BT.709-5, BT.1361, IEC 61966-2-4, SMPTE RP177
Transfer characteristics : BT.709-5, BT.1361
Matrix coefficients : BT.709-5, BT.1361, IEC 61966-2-4 709, SMPTE RP177

Audio
ID : 1
Format : AAC
Format/Info : Advanced Audio Codec
Format profile : LC
Codec ID : 40
Duration : 1h 11mn
Bit rate mode : Constant
Bit rate : 103 Kbps
Channel(s) : 2 channels
Channel positions : Front: L R
Sampling rate : 48.0 KHz
Compression mode : Lossy
Stream size : 52.5 MiB (6%)
Encoded date : UTC 2017-11-23 00:46:32
Tagged date : UTC 2017-11-23 00:46:32

 

 

 

 

 

Watch Developmentally Speaking with Pete Gas and Ugene

 

 

 

 

Watch online

 

 

Waiting finish converting video

 

 

Server 1

 

 

 

 

 

 

 

 

 

 

 

 

 

 

 

 

 

 

 

 

Server 2

 

 

 

 

 

 

 

 


 

 

 

 

Srver 3

 

 

 

 

 

 

 

 

 

 


 

 

 

 

 

 

 

 

Uploaded By Site DX-TV.com

 

 

 

open rar file to see this password

 

 

 

 

The password is : DX-TV.com

 

 

 

 

720p

 

 

 

Uploaded.net

 

 

 

 

 

http://shrt10.com/mEodK

 

 

 

 

 

 

 

 

 

 

rapidgator.net

 

 

 

 

 

 

 

 

http://shrt10.com/YEUv

 

 

 

 

 

 

Watch Developmentally Speaking with Pete Gas and Ugene