Watch Defiant Wrestling We Are Defiant 2017 12 04 WEB /720p /1080p mp4

Watch Defiant Wrestling We Are Defiant 2017 12 04 WEB /720p /1080p mp4

 

 

 

 

 

 

wwe

 

 

 

 

 

 

Complete name : Defiant Wrestling We Are Defiant 2017-12-04 WEB 400p.mp4
Format : MPEG-4
Codec ID : mp42
File size : 1.87 GiB
Duration : 2h 51mn
Overall bit rate : 1 567 Kbps

Video
Duration : 2h 51mn
Bit rate mode : Variable
Bit rate : 1 400 Kbps
Width : 720 pixels
Height : 406 pixels
Display aspect ratio : 16:9
Frame rate mode : Constant
Frame rate : 25.000 fps
Color space : YUV
Chroma subsampling : 4:2:0
Bit depth : 8 bits
Scan type : Progressive
Bits/(Pixel*Frame) : 0.192

Audio
Duration : 2h 51mn
Bit rate mode : Variable
Bit rate : 160 Kbps
Channel(s) : 2 channels
Channel positions : Front: L R
Sampling rate : 48.0 KHz
Compression mode : Lossy
Stream size : 196 MiB (10%)
Title : Stereo

 

 

 

 

 

 

 
Complete name : Defiant Wrestling We Are Defiant 2017-12-04 WEB 720p.mkv
Format : Matroska
File size : 3.78 GiB
Duration : 2h 51mn
Overall bit rate : 3 164 Kbps

Video
Duration : 2h 51mn
Nominal bit rate : 3 000 Kbps
Width : 1 280 pixels
Height : 720 pixels
Display aspect ratio : 16:9
Frame rate mode : Variable
Frame rate : 25.000 fps
Color space : YUV
Chroma subsampling : 4:2:0
Bit depth : 8 bits
Scan type : Progressive

Audio
Duration : 2h 51mn
Channel(s) : 2 channels
Channel positions : Front: L R
Sampling rate : 48.0 KHz
Compression mode : Lossy
Delay relative to video : -21ms
Title : Stereo
Language : English

 

 

 

 

 

 
Complete name : Defiant.Wrestling.#WeAreDefiant.2017.12.04.1080p.WEB-DL.x264-Lopatar.MP4
Format : MPEG-4
Codec ID : M4V
File size : 5.77 GiB
Duration : 2h 51mn
Overall bit rate : 4 830 Kbps

Video
Duration : 2h 51mn
Bit rate mode : Variable
Bit rate : 4 669 Kbps
Width : 1 920 pixels
Height : 1 080 pixels
Display aspect ratio : 16:9
Frame rate mode : Constant
Frame rate : 25.000 fps
Standard : PAL
Color space : YUV
Chroma subsampling : 4:2:0
Bit depth : 8 bits
Scan type : Progressive
Bits/(Pixel*Frame) : 0.090
Stream size : 5.58 GiB (97%)
Language : English
Language : English

 

 

 

 

 

 

 

 

 

 

 

 

 

 

Watch Defiant Wrestling We Are Defiant 2017 12 04 WEB /720p /1080p mp4

 

 

 

 

Watch online

 

 

Waiting finish converting video

 

 

Server 1

 

 

 

 

 

 

 

 

 

 


 

 

 

 

 

 

 

Server 2

 

 

 

 

 

 

 

 

 

 


 

 

 

 

 

 

Srver 3

 

 

 

 

 

 

 

 

 

 


 

 

 

 

 

 

 

 

Uploaded By Site DX-TV.com

 

 

 

open rar file to see this password

 

 

 

 

The password is : DX-TV.com

 

 

 

 

400p+720p+1080p

 

 

 

Uploaded.net

 

 

 

 

 

 

 

 

http://shrt10.com/oy0GtY

 

 

 

 

http://shrt10.com/VSW9D

 

 

 

 

http://shrt10.com/EbW0tr

 

 

 

 

http://shrt10.com/ixE7

 

 

 

 

 

 

 

rapidgator.net

 

 

 

 

 

 

 

 

http://shrt10.com/aT50EZ5

 

 

 

 

http://shrt10.com/Ebepy

 

 

 

 

http://shrt10.com/sIAqrgrt

 

 

 

 

http://shrt10.com/KQcueVv

 

 

 

 

 

 

Watch Defiant Wrestling We Are Defiant 2017 12 04 WEB /720p /1080p mp4

Support HVIPS

Please Disable Ad-Block To View This site. just help us to continue this work