Watch Defiant Wrestling 9 Full Show

Watch Defiant Wrestling 9 Full Show

 

 

 

 

 

 

wwe

 

 

 

 

 

Complete name : Defiant Wrestling 9 Full Show-webrip-DJ.mp4
Format : MPEG-4
Format profile : Base Media / Version 2
Codec ID : mp42
File size : 1 011 MiB
Duration : 57mn 45s
Overall bit rate : 2 447 Kbps
Encoded date : UTC 2018-02-09 21:50:43
Tagged date : UTC 2018-02-09 21:50:43

Video
ID : 1
Format : AVC
Format/Info : Advanced Video Codec
Codec ID : avc1
Codec ID/Info : Advanced Video Coding
Duration : 57mn 45s
Bit rate mode : Variable
Bit rate : 2 252 Kbps
Maximum bit rate : 6 453 Kbps
Width : 1 280 pixels
Height : 720 pixels
Display aspect ratio : 16:9
Frame rate mode : Constant
Frame rate : 25.000 fps
Color space : YUV
Chroma subsampling : 4:2:0
Bit depth : 8 bits
Scan type : Progressive
Bits/(Pixel*Frame) : 0.098
Stream size : 930 MiB (92%)

Audio
ID : 2
Format : AAC
Format/Info : Advanced Audio Codec
Format profile : LC
Codec ID : 40
Duration : 57mn 45s
Bit rate mode : Variable
Bit rate : 192 Kbps
Maximum bit rate : 201 Kbps
Channel(s) : 2 channels
Channel positions : Front: L R
Sampling rate : 44.1 KHz
Compression mode : Lossy
Stream size : 79.3 MiB (8%)
Encoded date : UTC 2018-02-09 21:51:05
Tagged date : UTC 2018-02-09 21:51:16

 

 

 

 

 

 

 

 

Watch Defiant Wrestling 9 Full Show

 

 

 

 

Watch online

 

 

Waiting finish converting video

 

 

Server 1

 

 

 

 

 

 

 

 

 

 

 

 

 

 

 

 

 

 

Server 2

 

 

 

 

 

 

 

 

 

 

 

 

 

 

 

Uploaded By Site DX-TV.com

 

 

 

open rar file to see this password

 

 

 

 

The password is : DX-TV.com

 

 

 

 

 

 

Uploaded.net + rapidgator.net

 

 

 

 

 

 

 

http://shrt10.com/PlbO

 

 

 

 

http://shrt10.com/qj73X

 

 

 

 

 

 

 

 

 

Watch Defiant Wrestling 9 Full Show