Watch Defiant Wrestling 5

Watch Defiant Wrestling 5

 

 

 

 

 

 

wwe

 

 

 

 

 

 

 

Complete name : Defiant Wrestling 5-Full Show-webrip-DJ.mp4
Format : MPEG-4
Format profile : Base Media / Version 2
Codec ID : mp42
File size : 1.08 GiB
Duration : 1h 2mn
Overall bit rate : 2 447 Kbps
Encoded date : UTC 2018-01-12 21:46:30
Tagged date : UTC 2018-01-12 21:46:30
Video
ID : 1
Format : AVC
Format/Info : Advanced Video Codec
Format settings, ReFrames : 1 frame
Codec ID : avc1
Codec ID/Info : Advanced Video Coding
Duration : 1h 2mn
Bit rate mode : Variable
Bit rate : 2 253 Kbps
Maximum bit rate : 6 406 Kbps
Width : 1 280 pixels
Height : 720 pixels
Display aspect ratio : 16:9
Frame rate mode : Constant
Frame rate : 25.000 fps
Color space : YUV
Chroma subsampling : 4:2:0
Bit depth : 8 bits
Scan type : Progressive
Bits/(Pixel*Frame) : 0.098
Stream size : 1 015 MiB (92%)
Tagged date : UTC 2018-01-12 21:46:53

Audio
ID : 2
Format : AAC
Format/Info : Advanced Audio Codec
Format profile : LC
Codec ID : 40
Duration : 1h 2mn
Bit rate mode : Variable
Bit rate : 192 Kbps
Maximum bit rate : 201 Kbps
Channel(s) : 2 channels
Channel positions : Front: L R
Sampling rate : 44.1 KHz
Compression mode : Lossy
Stream size : 86.5 MiB (8%)
Encoded date : UTC 2018-01-12 21:46:45
Tagged date : UTC 2018-01-12 21:46:53

 

 

 

 

 

 

 

 

 

 

 

 

 

 

 

 

 

Watch Defiant Wrestling 5

 

 

 

 

Watch online

 

 

Waiting finish converting video

 

 

Server 1

 

 

 

 

 

 

 

 

 

 

 

 

 

 

 

 

 

 

 

Server 2

 

 

 

 

 

 

 

 

 

 

 

 

 

 

Uploaded By Site DX-TV.com

 

 

 

open rar file to see this password

 

 

 

 

The password is : DX-TV.com

 

 

 

 

 

Uploaded.net + rapidgator.net

 

 

 

 

 

 

 

 

 

 

 

http://shrt10.com/I1zoEQ9

 

 

http://shrt10.com/Ffc9hHVE

 

 

 

 

 

 

 

 

 

 

Watch Defiant Wrestling 5