Watch Defiant Wrestling 12 Final Show

Watch Defiant Wrestling 12 Final Show

 

 

 

s

 

 

 

wwe

 

 

 

 

 

 

 
Complete name : Defiant Wrestling 12 Full Show-Final Show Before Lights Out-webrip-DJ.mp4
Format : MPEG-4
Format profile : Base Media / Version 2
Codec ID : mp42
File size : 896 MiB
Duration : 59mn 4s
Overall bit rate : 2 119 Kbps
Encoded date : UTC 2018-03-09 21:42:35
Tagged date : UTC 2018-03-09 21:42:35
gsst : 0
gstd : 3544826

Video
ID : 1
Format : AVC
Format/Info : Advanced Video Codec
Codec ID : avc1
Codec ID/Info : Advanced Video Coding
Duration : 59mn 4s
Bit rate mode : Variable
Bit rate : 1 925 Kbps
Maximum bit rate : 6 965 Kbps
Width : 1 280 pixels
Height : 720 pixels
Display aspect ratio : 16:9
Frame rate mode : Constant
Frame rate : 25.000 fps
Color space : YUV
Chroma subsampling : 4:2:0
Bit depth : 8 bits
Scan type : Progressive
Bits/(Pixel*Frame) : 0.084
Stream size : 813 MiB (91%)
Tagged date : UTC 2018-03-09 21:43:00

Audio
ID : 2
Format : AAC
Format/Info : Advanced Audio Codec
Format profile : LC
Codec ID : 40
Duration : 59mn 4s
Bit rate mode : Variable
Bit rate : 192 Kbps
Maximum bit rate : 201 Kbps
Channel(s) : 2 channels
Channel positions : Front: L R
Sampling rate : 44.1 KHz
Compression mode : Lossy
Stream size : 81.1 MiB (9%)
Encoded date : UTC 2018-03-09 21:42:51
Tagged date : UTC 2018-03-09 21:43:00

 

 

 

 

 

 

Watch Defiant Wrestling 12 Final Show

 

 

 

 

Watch online

 

 

Waiting finish converting video

 

 

Server 1

 

 

 

 

 

 

 

 

 

 

 

 

 

 

 

Server 2

 

 

 

 

 


 

 

 

 

 

 

 

Uploaded By Site DX-TV.com

 

 

 

open rar file to see this password

 

 

 

 

The password is : DX-TV.com

 

 

 

 

 

 

Uploaded.net + rapidgator.net

 

 

 

 

 

 

 

http://shrt10.com/2zkNQWLb

 

 

 

 

http://shrt10.com/pqJl

 

 

 

 

 

 

 

 

 

Watch Defiant Wrestling 12 Final Show

Support HVIPS

Please Disable Ad-Block To View This site. just help us to continue this work