Watch Defiant Wrestling 11 Full Show Online

Watch Defiant Wrestling 11 Full Show Online

 

 

s

 

 

 

wwe

 

 

 

 

 

 

Complete name : Defiant Wrestling 11 Full Show-webrip-DJ.mp4
Format : MPEG-4
Format profile : Base Media / Version 2
Codec ID : mp42
File size : 1.04 GiB
Duration : 1h 10mn
Overall bit rate : 2 121 Kbps
Encoded date : UTC 2018-03-02 21:28:19
Tagged date : UTC 2018-03-02 21:28:19

Video
ID : 1
Format : AVC
Format/Info : Advanced Video Codec
Codec ID : avc1
Codec ID/Info : Advanced Video Coding
Duration : 1h 10mn
Bit rate mode : Variable
Bit rate : 1 927 Kbps
Maximum bit rate : 6 988 Kbps
Width : 1 280 pixels
Height : 720 pixels
Display aspect ratio : 16:9
Frame rate mode : Constant
Frame rate : 25.000 fps
Color space : YUV
Chroma subsampling : 4:2:0
Bit depth : 8 bits
Scan type : Progressive
Bits/(Pixel*Frame) : 0.084
Stream size : 970 MiB (91%)
Tagged date : UTC 2018-03-02 21:28:55

Audio
ID : 2
Format : AAC
Format/Info : Advanced Audio Codec
Format profile : LC
Codec ID : 40
Duration : 1h 10mn
Bit rate mode : Variable
Bit rate : 192 Kbps
Maximum bit rate : 201 Kbps
Channel(s) : 2 channels
Channel positions : Front: L R
Sampling rate : 44.1 KHz
Compression mode : Lossy
Stream size : 96.6 MiB (9%)
Encoded date : UTC 2018-03-02 21:28:44
Tagged date : UTC 2018-03-02 21:28:55

 

 

 

 

 

 

 

 

Watch Defiant Wrestling 11 Full Show Online

 

 

 

 

Watch online

 

 

Waiting finish converting video

 

 

Server 1

 

 

 

 

 

 

 

 

 

 

 

 

 

 

 

 

Server 2

 

 

 

 

 

 

 


 

 

 

 

 

 

 

Uploaded By Site DX-TV.com

 

 

 

open rar file to see this password

 

 

 

 

The password is : DX-TV.com

 

 

 

 

 

 

Uploaded.net + rapidgator.net

 

 

 

 

 

 

 

http://shrt10.com/n3YG

 

 

 

 

http://shrt10.com/4X762

 

 

 

 

 

 

 

Watch Defiant Wrestling 11 Full Show Online

Support HVIPS

Please Disable Ad-Block To View This site. just help us to continue this work