Watch Defiant 2 2017 12 22

Watch Defiant 2 2017 12 22

 

 

 

 

 

 

wwe

 

 

 

 

 

 

 

(05.12.17) 22.12.17.mp4
Format : MPEG-4
Format profile : Base Media
Codec ID : isom
File size : 806 MiB
Duration : 56mn 25s
Overall bit rate : 1 997 Kbps
Movie name : Defiant Wrestling #2: Full Show
Performer : Defiant Wrestling
Encoded date : 2017
Writing application : Lavf55.49.100

Video
ID : 1
Format : AVC
Format/Info : Advanced Video Codec
Codec ID : avc1
Codec ID/Info : Advanced Video Coding
Duration : 56mn 25s
Bit rate mode : Variable
Bit rate : 1 865 Kbps
Width : 1 280 pixels
Height : 720 pixels
Display aspect ratio : 16:9
Frame rate mode : Constant
Frame rate : 30.000 fps
Color space : YUV
Chroma subsampling : 4:2:0
Bit depth : 8 bits
Scan type : Progressive
Bits/(Pixel*Frame) : 0.067
Stream size : 753 MiB (93%)

Audio
ID : 2
Format : AAC
Format/Info : Advanced Audio Codec
Format profile : LC
Codec ID : 40
Duration : 56mn 25s
Bit rate mode : Variable
Bit rate : 125 Kbps
Maximum bit rate : 128 Kbps
Channel(s) : 2 channels
Channel positions : Front: L R
Sampling rate : 48.0 KHz
Compression mode : Lossy
Stream size : 50.6 MiB (6%)

 

 

 

 

 

 

 

 

 

 

 

 

 

 

 

 

 

 

Watch Defiant 2 2017 12 22

 

 

 

 

Watch online

 

 

Waiting finish converting video

 

 

Server 1

 

 

 

 

 

 

 

 

 

 

 

 

 

 

 

 

 

 

 

 

Server 2

 

 

 

 

 

 

 

 

 

 

 

 

 

 

 


 

 

 

 

 

 

Uploaded By Site DX-TV.com

 

 

 

open rar file to see this password

 

 

 

 

The password is : DX-TV.com

 

 

 

 

 

 

rapidgator.net

 

 

 

 

 

 

 

 

 

 

 

 

 

http://shrt10.com/0R8nHIYP

 

 

 

 

 

 

 

 

Watch Defiant 2 2017 12 22