Watch DDT DAMNATION Produce Illegal Gathering Vol 2 WEB DL

Watch DDT DAMNATION Produce Illegal Gathering Vol 2 WEB DL

 

 

 

 

 

 

wwe

 

 

 

 

 

 

 

Complete name : DDT.DAMNATION.Produce.Illegal.Gathering.Vol.2.WEB-DL.mp4
Format : MPEG-4
Format profile : Base Media
Codec ID : isom
File size : 2.58 GiB
Duration : 3h 3mn
Overall bit rate : 2 015 Kbps
Writing application : Lavf56.40.101

Video
ID : 1
Format : AVC
Format/Info : Advanced Video Codec
Codec ID : avc1
Codec ID/Info : Advanced Video Coding
Duration : 3h 3mn
Bit rate mode : Constant
Bit rate : 1 904 Kbps
Width : 960 pixels
Height : 540 pixels
Display aspect ratio : 16:9
Frame rate mode : Variable
Frame rate : 30.000 fps
Minimum frame rate : 29.412 fps
Maximum frame rate : 30.303 fps
Color space : YUV
Chroma subsampling : 4:2:0
Bit depth : 8 bits
Scan type : Progressive
Bits/(Pixel*Frame) : 0.122
Stream size : 2.44 GiB (95%)

Audio
ID : 2
Format : AAC
Format/Info : Advanced Audio Codec
Format profile : LC
Codec ID : 40
Duration : 3h 3mn
Bit rate mode : Constant
Bit rate : 98.7 Kbps
Channel(s) : 2 channels
Channel positions : Front: L R
Sampling rate : 44.1 KHz
Compression mode : Lossy
Stream size : 129 MiB (5%)

 

 

 

 

 

 

 

 

 

 

 

 

 

 

 

 

 

Watch DDT DAMNATION Produce Illegal Gathering Vol 2 WEB DL

 

 

 

 

Watch online

 

 

Waiting finish converting video

 

 

Server 1

 

 

 

 

 

 

 

 

 

 

 

 

 

 

 

 

 

 

 

 

 

 

 

 

 

Server 2

 

 

 

 

 

 

 

 

 

 


 

 

 

 

 

 

 

 

 

 

 

 

Uploaded By Site DX-TV.com

 

 

 

open rar file to see this password

 

 

 

 

The password is : DX-TV.com

 

 

 

 

 

 

 

 

 

Uploaded.net + rapidgator.net

 

 

 

 

 

 

 

 

 

http://shrt10.com/sMOnjl

 

 

http://shrt10.com/Ls73l

 

 

 

 

 

 

 

 

 

 

 

 

Watch DDT DAMNATION Produce Illegal Gathering Vol 2 WEB DL

Support HVIPS

Please Disable Ad-Block To View This site. just help us to continue this work