Watch DDT D-KING GRAND PRIX 2018 IN YOKOHAMA

Watch DDT D-KING GRAND PRIX 2018 IN YOKOHAMA

 

 

 

 

 

 

wwe

 

 

 

 

 

 

Complete name : DDT “D-KING GRAND PRIX 2018 IN YOKOHAMA”.mp4
Format : MPEG-4
Format profile : Base Media
Codec ID : isom
File size : 1.79 GiB
Duration : 2h 8mn
Overall bit rate : 2 004 Kbps
Writing application : Lavf56.40.101

Video
ID : 1
Format : AVC
Format/Info : Advanced Video Codec
Codec ID : avc1
Codec ID/Info : Advanced Video Coding
Duration : 2h 8mn
Bit rate mode : Constant
Bit rate : 1 904 Kbps
Width : 960 pixels
Height : 540 pixels
Display aspect ratio : 16:9
Frame rate mode : Variable
Frame rate : 30.000 fps
Minimum frame rate : 15.152 fps
Maximum frame rate : 90 000.000 fps
Standard : NTSC
Color space : YUV
Chroma subsampling : 4:2:0
Bit depth : 8 bits
Scan type : Progressive
Bits/(Pixel*Frame) : 0.122
Stream size : 1.70 GiB (95%)

Audio
ID : 2
Format : AAC
Format/Info : Advanced Audio Codec
Format profile : LC
Codec ID : 40
Duration : 2h 8mn
Bit rate mode : Variable
Bit rate : 88.3 Kbps
Maximum bit rate : 92.3 Kbps
Channel(s) : 2 channels
Channel positions : Front: L R
Sampling rate : 44.1 KHz
Compression mode : Lossy
Stream size : 80.9 MiB (4%)

 

 

 

 

 

 

 

 

 

 

 

 

 

 

 

 

 

 

Watch DDT D-KING GRAND PRIX 2018 IN YOKOHAMA

 

 

 

 

Watch online

 

 

Waiting finish converting video

 

 

Server 1

 

 

 

 

 

 

 

 

 

 

 

 

 

 

 

 

 

 

 

 

Server 2

 

 

 

 

 

 

 

 


 

 

 

 

Uploaded By Site DX-TV.com

 

 

 

open rar file to see this password

 

 

 

 

The password is : DX-TV.com

 

 

 

 

 

 

Uploaded.net + rapidgator.net

 

 

 

 

 

 

 

 

 

 

 

http://shrt10.com/YRD5

 

 

 

http://shrt10.com/Vnig41LN

 

 

 

 

 

 

 

 

 

 

Watch DDT D-KING GRAND PRIX 2018 IN YOKOHAMA

Support HVIPS

Please Disable Ad-Block To View This site. just help us to continue this work