Watch CZW Nineteen 2018 02 10 WEB DL /720p mp4

Watch CZW Nineteen 2018 02 10 WEB DL /720p mp4

 

 

 

 

 

 

wwe

 

 

 

 

 

 

Complete name : CZW.Nineteen.2.10.2018 480p.mp4
Format : MPEG-4
Format profile : Base Media
Codec ID : isom
File size : 1.93 GiB
Duration : 2h 55mn
Overall bit rate : 1 574 Kbps
Encoded date : UTC 2018-02-14 16:27:44
Tagged date : UTC 2018-02-14 16:27:44

Video
ID : 1
Format : AVC
Format/Info : Advanced Video Codec
Codec ID : avc1
Codec ID/Info : Advanced Video Coding
Duration : 2h 55mn
Bit rate mode : Variable
Bit rate : 1 492 Kbps
Maximum bit rate : 3 450 Kbps
Width : 854 pixels
Height : 480 pixels
Display aspect ratio : 16:9
Frame rate mode : Constant
Frame rate : 29.970 fps
Color space : YUV
Chroma subsampling : 4:2:0
Bit depth : 8 bits
Scan type : Progressive
Bits/(Pixel*Frame) : 0.121
Stream size : 1.83 GiB (95%)

Audio
ID : 2
Format : AAC
Format/Info : Advanced Audio Codec
Format profile : LC
Codec ID : 40
Duration : 2h 55mn
Bit rate mode : Variable
Bit rate : 79.2 Kbps
Maximum bit rate : 92.6 Kbps
Channel(s) : 2 channels
Channel positions : Front: L R
Sampling rate : 48.0 KHz
Compression mode : Lossy
Stream size : 99.2 MiB (5%)
Encoded date : UTC 2018-02-14 15:31:52
Tagged date : UTC 2018-02-14 16:27:47

 

 

 

 

 

 

 

 
Combat Zone Wrestling:
“Nineteen”
February 10, 2018
Voorhees, NJ

Brandon Kirk vs. Joey Janela

Best Of The Best 17 Qualifying Scramble Match:
Alexander James vs. Alex Reynolds vs. Dan Barry vs. John Silver vs. Tyler Murphy

CZW Wired Title Match:
Maxwell Jacob Friedman (c) vs. Alex Colon

Ultraviolent Dog Collar Match:
Ace Romero vs. Greg Excellent (w/Chrissy Rivera)

Anthony Gangone vs. Joe Gacy

CZW World Heavyweight Title #1 Contendership 30 Man Battle Royal

CZW Tag Team Title Match:
Angsty Ellis & Handsome Charlie vs. The REP (Dave McCall & Nate Carter)

Six Man Tag Team Lucha Extrema Match:
Rickey Shane Page & The Lucha Brothers (Penta El Zero M & Rey Fenix) vs. The Killer Cult (Dave Crist, Jake Crist & Sami Callihan)
 

 

 

 

 

 

 

 

 

 

Watch CZW Nineteen 2018 02 10 WEB DL /720p mp4

 

 

 

 

Watch online

 

 

Waiting finish converting video

 

 

Server 1

 

 

 

 

 

 

 

 

 

 

 

 

 

 

 

 

 

 

 

 

 

Server 2

 

 

 

 

 

 


 

 

 

 

 

 

Uploaded By Site DX-TV.com

 

 

 

open rar file to see this password

 

 

 

 

The password is : DX-TV.com

 

 

 

 

400p+720p

 

 

 

 

 

Uploaded.net + rapidgator.net

 

 

 

 

 

 

http://shrt10.com/GgVc2

 

 

 

http://shrt10.com/ol5hlGz

 

 

 

http://shrt10.com/uCEeV0

 

 

http://shrt10.com/bP0EVjqe

 

 

 

 

 

 

 

 

Watch CZW Nineteen 2018 02 10 WEB DL /720p mp4