Watch CZW Cage of Death 19 2017 12 09 WEB DL /720p

Watch CZW Cage of Death 19 2017 12 09 WEB DL /720p

 

 

 

 

 

wwe

 

 

 

 

 

 

Complete name : Download\CZW.COD19.360p.mp4
Format : MPEG-4
Format profile : Base Media
Codec ID : isom
File size : 774 MiB
Duration : 3h 6mn
Overall bit rate : 580 Kbps

Video
ID : 1
Format : AVC
Format/Info : Advanced Video Codec
Codec ID : avc1
Codec ID/Info : Advanced Video Coding
Duration : 3h 6mn
Bit rate mode : Variable
Bit rate : 497 Kbps
Maximum bit rate : 1 309 Kbps
Width : 640 pixels
Height : 360 pixels
Display aspect ratio : 16:9
Frame rate mode : Constant
Frame rate : 29.970 fps
Color space : YUV
Chroma subsampling : 4:2:0
Bit depth : 8 bits
Scan type : Progressive
Bits/(Pixel*Frame) : 0.072
Stream size : 663 MiB (86%)x

Audio
ID : 2
Format : AAC
Format/Info : Advanced Audio Codec
Format profile : LC
Codec ID : 40
Duration : 3h 6mn
Bit rate mode : Variable
Bit rate : 80.3 Kbps
Maximum bit rate : 107 Kbps
Channel(s) : 2 channels
Channel positions : Front: L R
Sampling rate : 48.0 KHz
Compression mode : Lossy
Stream size : 107 MiB (14%)

 

 

 

 

 
Complete name : CZW Cage of Death 19 (2017.12.09) (720p).mp4
Format : MPEG-4
Format profile : Base Media
Codec ID : isom
File size : 3.48 GiB
Duration : 3h 6mn
Overall bit rate : 2 671 Kbps

Video
ID : 2
Format : AVC
Format/Info : Advanced Video Codec
Codec ID : avc1
Codec ID/Info : Advanced Video Coding
Duration : 3h 6mn
Bit rate mode : Variable
Bit rate : 2 589 Kbps
Width : 1 280 pixels
Height : 720 pixels
Display aspect ratio : 16:9
Frame rate mode : Constant
Frame rate : 29.970 fps
Color space : YUV
Chroma subsampling : 4:2:0
Bit depth : 8 bits
Scan type : Progressive
Bits/(Pixel*Frame) : 0.094
Stream size : 3.37 GiB (97%)

Audio
ID : 1
Format : AAC
Format/Info : Advanced Audio Codec
Format profile : LC
Codec ID : 40
Duration : 3h 6mn
Bit rate mode : Variable
Bit rate : 74.8 Kbps
Maximum bit rate : 79.1 Kbps
Channel(s) : 2 channels
Channel positions : Front: L R
Sampling rate : 48.0 KHz
Compression mode : Lossy
Stream size : 99.8 MiB (3%)

 

 

 

 

 

 

 

 

 

 

 

 

 

Watch CZW Cage of Death 19 2017 12 09 WEB DL /720p

 

 

 

 

Watch online

 

 

Waiting finish converting video

 

 

Server 1

 

 

 

 

 

 

 

 

 

 

 

 

 

 

 

 

 

 

 

 

Server 2

 

 

 

 

 

 

 

 

 

 


 

 

 

 

 

 

Srver 3

 

 

 

 

 

 

 

 

 

 


 

 

 

 

 

 

 

 

Uploaded By Site DX-TV.com

 

 

 

open rar file to see this password

 

 

 

 

The password is : DX-TV.com

 

 

 

 

400p+720p

 

 

 

rapidgator.net

 

 

 

 

 

 

 

 

 

http://shrt10.com/eukp66Dp

 

 

 

 

http://shrt10.com/RTqM

 

 

 

 

 

 

 

 

Watch CZW Cage of Death 19 2017 12 09 WEB DL /720p