Watch CZW 2018 03 10 Proving Grounds Rough Edit /720p

Watch CZW 2018 03 10 Proving Grounds Rough Edit /720p

 

 

s

 

 

 

wwe

 

 

 

 

 

 
Complete name : CZW – 2018.03.10 – Proving Grounds (Rough Edit) (480p).mp4
Format : MPEG-4
Format profile : Base Media
Codec ID : isom
File size : 1.72 GiB
Duration : 2h 35mn
Overall bit rate : 1 577 Kbps
Writing application : Lavf55.12.100

Video
ID : 2
Format : AVC
Format/Info : Advanced Video Codec
Codec ID : avc1
Codec ID/Info : Advanced Video Coding
Duration : 2h 35mn
Bit rate mode : Variable
Bit rate : 1 495 Kbps
Width : 854 pixels
Height : 480 pixels
Display aspect ratio : 16:9
Frame rate mode : Constant
Frame rate : 29.970 fps
Color space : YUV
Chroma subsampling : 4:2:0
Bit depth : 8 bits
Scan type : Progressive
Bits/(Pixel*Frame) : 0.122
Stream size : 1.63 GiB (95%)

Audio
ID : 1
Format : AAC
Format/Info : Advanced Audio Codec
Format profile : LC
Codec ID : 40
Duration : 2h 35mn
Bit rate mode : Constant
Bit rate : 74.5 Kbps
Channel(s) : 2 channels
Channel positions : Front: L R
Sampling rate : 48.0 KHz
Compression mode : Lossy
Stream size : 83.1 MiB (5%)

 

 

 

 

 

 

 
Source: Highspots Wrestling Network

Untouched. Video is as it is from the VOD service.

CZW: Proving Grounds (Rough Edit)
Video Duration: 02:35:54

Joined in progress due to technical difficulties-

1. Trifecta Round #1: Mike Verna vs. Wheeler YUTA vs. Gary Jay

2. Trifecta Round #1: Anthony Bennett vs. Rayo vs. Kit Osbourne

3. Trifecta Round #1: Brandon Watts vs. KC Navarro vs. Ace Austin

4. CZW Tag-Team Titles: The Awakening (Stockade & G-Raver) vs. The REP (Nate Carter & Dave McCall) (c)

5. MJF & Rickey Shane Page Contract Signing

6. Ace Romero vs. Joey Janela

7. Joe Gacy vs. Jonathan Gresham

8. MJF & Mr. Claxton vs. Alex Colon & Rickey Shane Page

9. Trifecta Final: Best of the Best 17 Qualifier

10. Tangled Web: Matt Tremont vs. Brandon Kirk
 

 

 

 

 

 

 

 

 

 

 

 

Watch CZW 2018 03 10 Proving Grounds Rough Edit /720p

 

 

 

 

Watch online

 

 

Waiting finish converting video

 

 

Server 1

 

 

 

 

 

 

 

 

 

 

 

 

 

 

 

 

 

 

Server 2

 

 

 

 

 

 

 


 

 

 

 

 

 

Uploaded By Site DX-TV.com

 

 

 

open rar file to see this password

 

 

 

 

The password is : DX-TV.com

 

 

 

 

400p+720p

 

 

 

 

 

Uploaded.net + rapidgator.net

 

 

 

 

 

 

http://shrt10.com/FfCrPu

 

 

http://shrt10.com/tZVKCY

 

 

http://shrt10.com/ERL7F7

 

 

http://shrt10.com/iNxPOPCo

 

 

 

 

 

 

Watch CZW 2018 03 10 Proving Grounds Rough Edit /720p