Watch CZW 2018 02 23 Greetings From Asbury Park WEB NCMP / 720p

Watch CZW 2018 02 23 Greetings From Asbury Park WEB NCMP / 720p

 

s

 

 

 

wwe

 

 

 

 

 

 

 

Complete name : CZW.2018.02.23.Greetings.From.Asbury.Park.WEB.h264-NCMP.mp4
Format : MPEG-4
Format profile : Base Media
Codec ID : isom
File size : 1.41 GiB
Duration : 2h 5mn
Overall bit rate : 1 605 Kbps
Writing application : Lavf55.12.100

Video
ID : 2
Format : AVC
Format/Info : Advanced Video Codec
Codec ID : avc1
Codec ID/Info : Advanced Video Coding
Duration : 2h 5mn
Bit rate mode : Variable
Bit rate : 1 494 Kbps
Width : 854 pixels
Height : 480 pixels
Display aspect ratio : 16:9
Frame rate mode : Constant
Frame rate : 29.970 fps
Color space : YUV
Chroma subsampling : 4:2:0
Bit depth : 8 bits
Scan type : Progressive
Bits/(Pixel*Frame) : 0.122
Stream size : 1.31 GiB (93%)x

Audio
ID : 1
Format : AAC
Format/Info : Advanced Audio Codec
Format profile : LC
Codec ID : 40
Duration : 2h 5mn
Bit rate mode : Variable
Bit rate : 103 Kbps
Maximum bit rate : 105 Kbps
Channel(s) : 2 channels
Channel positions : Front: L R
Sampling rate : 48.0 KHz
Compression mode : Lossy
Stream size : 93.1 MiB (6%)

 

 

 

 

 

 
CZW: Greetings From Asbury Park
Video Duration: 02:05:47

CZW Dojo Wars Showcase – Jimmy Lloyd vs. El Cheapo vs. Connor Braxton vs. Jordan Oliver vs. Ellis Taylor vs. Frankie Pickard vs. Griffin McCoy vs. Charlie Tiger.

Konnor Klaxton and Mitch Vallen vs. Storm of Entrails

Alex Reynolds vs. John Silver

Dojo Wars Medal of Valor Title – Mike Del (C) vs. Kit Osborne

The Rep (Dave McCall and Nate Carter) (C) w/Maven Bentley vs. Private Party (Marq Qen and Isaiah Kassidy)

Penelope Ford’s Open Challenge

G-Raver and Stockade vs. Brandon Kirk and ???

Jonathan Gresham vs. Desmond Xavier

CZW Championship – Ricky Shane Page (C) vs. Matt Tremont
 

 

 

 

 

 

 

 

 

 

 

Watch CZW 2018 02 23 Greetings From Asbury Park WEB NCMP / 720p

 

 

 

 

Watch online

 

 

Waiting finish converting video

 

 

Server 1

 

 

 

 

 

 

 

 

 

 

 

 

 

 

 

 

 

 

Server 2

 

 

 

 

 

 


 

 

 

 

Uploaded By Site DX-TV.com

 

 

 

open rar file to see this password

 

 

 

 

The password is : DX-TV.com

 

 

 

 

400p+720p

 

 

 

 

 

Uploaded.net + rapidgator.net

 

 

 

 

 

 

 

 

http://shrt10.com/otE3G

 

http://shrt10.com/a3kJ

 

http://shrt10.com/3r580UnC

 

http://shrt10.com/Rn2bl

 

 

 

 

 

 

 

 

 

 

 

 

 

Watch CZW 2018 02 23 Greetings From Asbury Park WEB NCMP / 720p

Support HVIPS

Please Disable Ad-Block To View This site. just help us to continue this work