Watch CZW 2017 11 11 Night Of Infamy 2017 WEB /720p

Watch CZW 2017 11 11 Night Of Infamy 2017 WEB /720p

 

 

 

 

 

 

wwe

 

 

 

 

 

 

 

 

 

 

Complete name : CZW.2017.11.11.Night.Of.Infamy.2017.WEB.h264-NCMP.mp4
Format : MPEG-4
Format profile : Base Media
Codec ID : isom
File size : 1.92 GiB
Duration : 2h 54mn
Overall bit rate : 1 576 Kbps
Encoded date : UTC 2017-11-21 01:24:09
Tagged date : UTC 2017-11-21 01:24:09
Writing application : Lavf56.36.100

Video
ID : 2
Format : AVC
Duration : 2h 54mn
Bit rate mode : Variable
Bit rate : 1 495 Kbps
Width : 854 pixels
Height : 480 pixels
Display aspect ratio : 16:9
Frame rate mode : Constant
Frame rate : 29.970 fps
Color space : YUV
Chroma subsampling : 4:2:0
Bit depth : 8 bits
Scan type : Progressive
Bits/(Pixel*Frame) : 0.122
Stream size : 1.82 GiB (95%)

Audio
ID : 1
Format : AAC
Format profile : LC
Codec ID : 40
Duration : 2h 54mn
Bit rate mode : Variable
Bit rate : 74.3 Kbps
Maximum bit rate : 79.9 Kbps
Channel(s) : 2 channels
Channel positions : Front: L R
Sampling rate : 48.0 KHz
Compression mode : Lossy
Stream size : 92.5 MiB (5%)

 

 

 

 

 

 
Complete name : CZW.2017.11.11.Night.Of.Infamy.2017.720p.WEB.h264-NCMP.mp4
Format : MPEG-4
Format profile : Base Media
Codec ID : isom
File size : 3.25 GiB
Duration : 2h 54mn
Overall bit rate : 2 670 Kbps

Video
ID : 2
Format : AVC
Bit rate mode : Variable
Bit rate : 2 588 Kbps
Width : 1 280 pixels
Height : 720 pixels
Display aspect ratio : 16:9
Frame rate mode : Constant
Frame rate : 29.970 fps
Color space : YUV
Chroma subsampling : 4:2:0
Bit depth : 8 bits
Scan type : Progressive
Bits/(Pixel*Frame) : 0.094
Stream size : 3.15 GiB (97%)

Audio
ID : 1
Format : AAC
Format profile : LC
Codec ID : 40
Duration : 2h 54mn
Bit rate mode : Variable
Bit rate : 74.3 Kbps
Maximum bit rate : 79.9 Kbps
Channel(s) : 2 channels
Channel positions : Front: L R
Sampling rate : 48.0 KHz
Compression mode : Lossy
Stream size : 92.5 MiB (3%)

 

 

 

 

 

 

 

 

 

 

Watch CZW 2017 11 11 Night Of Infamy 2017 WEB /720p

 

 

 

 

Watch online

 

 

Waiting finish converting video

 

 

Server 1

 

 

 

 

 

 

 

 

 

 

 

 

 

 

 

 

 

 

 

 

 

 

Srver 2

 

 

 

 

 

 

 

 

 


 

 

 

 

 

 

 

Server 3

 

 

 

 

 

 

 

 

 

 


 

 

 

 

 

 

Uploaded By Site DX-TV.com

 

 

 

open rar file to see this password

 

 

 

 

The password is : DX-TV.com

 

 

 

 

400p+720p

 

 

 

 

Uploaded.net

 

 

 

 

 

 

 

http://shrt10.com/l7zC

 

 

 

 

http://shrt10.com/5ij2K

 

 

 

 

 

 

 

 

 

 

rapidgator.net

 

 

 

 

 

 

http://shrt10.com/U5dla

 

 

 

 

http://shrt10.com/qG58YE

 

 

 

 

 

 

 

 

 

 

Watch CZW 2017 11 11 Night Of Infamy 2017 WEB /720p

Support HVIPS

Please Disable Ad-Block To View This site. just help us to continue this work