Watch CMLL 2017 11 17 WEB DL

Watch CMLL 2017 11 17 WEB DL

 

 

 

 

 

 

wwe

 

 

 

 

Complete name : CMLL 2017 11 17 WEB DL.mp4
Format : MPEG-4
Format profile : Base Media / Version 2
Codec ID : mp42
File size : 2.38 GiB
Duration : 2h 27mn
Overall bit rate : 2 304 Kbps
gstd : 8858180

Video
ID : 1
Format : AVC
Format/Info : Advanced Video Codec
Codec ID : avc1
Codec ID/Info : Advanced Video Coding
Duration : 2h 27mn
Bit rate mode : Variable
Bit rate : 2 176 Kbps
Width : 1 280 pixels
Height : 720 pixels
Display aspect ratio : 16:9
Frame rate mode : Constant
Frame rate : 29.970 fps
Color space : YUV
Chroma subsampling : 4:2:0
Bit depth : 8 bits
Scan type : Progressive
Bits/(Pixel*Frame) : 0.079
Stream size : 2.24 GiB (94%)

Audio
ID : 2
Format : AAC
Format/Info : Advanced Audio Codec
Format profile : LC
Codec ID : 40
Duration : 2h 27mn
Bit rate mode : Variable
Bit rate : 126 Kbps
Channel(s) : 2 channels
Channel positions : Front: L R
Sampling rate : 44.1 KHz
Compression mode : Lossy
Stream size : 133 MiB (5%)

 

 

 

 

 

 

 

 

 

 

 

 

 

 

 

 

 

 

Watch CMLL 2017 11 17 WEB DL

 

 

 

 

Watch online

 

 

Waiting finish converting video

 

 

Server 1

 

 

 

 

 

 

 

 

 

 

 

 

 

 

 

 

 

Srver 2

 

 

 

 

 

 


 

 

 

 

 

Server 3

 

 

 

 

 

 

 

 

 

 


 

 

 

 

 

 

Uploaded By Site DX-TV.com

 

 

 

open rar file to see this password

 

 

 

 

The password is : DX-TV.com

 

 

 

 

 

 

 

 

Uploaded.net

 

 

 

 

 

 

 

 

http://shrt10.com/Djkvve

 

 

 

 

 

 

 

 

 

 

rapidgator.net

 

 

 

 

 

 

 

 

http://shrt10.com/idqTEHEF

 

 

 

 

 

 

 

 

Watch CMLL 2017 11 17 WEB DL