Watch CMLL 2017 10 06 Super Viernes 720p

Watch CMLL 2017 10 06 Super Viernes 720p

 

 

 

 

 

 

wwe

 

 

 

 

 

 

Complete name : CMLL.2017.10.06.Super.Viernes.720p.WEB-DL.mp4
Format : MPEG-4
Format profile : Base Media
Codec ID : isom
File size : 2.03 GiB
Duration : 2h 2mn
Overall bit rate : 2 367 Kbps
Encoded date : UTC 2017-10-07 07:05:37
Tagged date : UTC 2017-10-07 07:05:37

Video
ID : 1
Format : AVC
Format/Info : Advanced Video Codec
Format settings, ReFrames : 3 frames
Codec ID : avc1
Codec ID/Info : Advanced Video Coding
Duration : 2h 2mn
Bit rate mode : Variable
Bit rate : 2 238 Kbps
Width : 1 280 pixels
Height : 720 pixels
Display aspect ratio : 16:9
Frame rate mode : Constant
Frame rate : 29.970 fps
Color space : YUV
Chroma subsampling : 4:2:0
Bit depth : 8 bits
Scan type : Progressive
Bits/(Pixel*Frame) : 0.081
Stream size : 1.92 GiB (95%)
Encoded date : UTC 2017-10-07 07:05:37
Tagged date : UTC 2017-10-07 07:05:37

Audio
ID : 2
Format : AAC
Format/Info : Advanced Audio Codec
Format profile : LC
Codec ID : 40
Duration : 2h 2mn
Bit rate mode : Variable
Bit rate : 126 Kbps
Channel(s) : 2 channels
Channel positions : Front: L R
Sampling rate : 44.1 KHz
Compression mode : Lossy
Stream size : 110 MiB (5%)

 

 

 

 

 

 

 

 

 

 

 

 

 

 

 

 

 

 

 

Watch CMLL 2017 10 06 Super Viernes 720p

 

 

 

 

Watch online

 

 

Waiting finish converting video

 

 

Server 1

 

 

 

 

 

 

 

 

 

 

 

 

 

 

 

 

 

 

 

 

Server 2

 

 

 

 

 

 

 

 

 

 

 


 

 

 

 

 

 

 

 

 

Uploaded By Site DX-TV.com

 

 

 

open rar file to see this password

 

 

 

 

The password is : DX-TV.com

 

 

 

 

 

 

 

 

Uploaded.net

 

 

 

 

 

 

 

 

 

 

http://shrt10.com/URUwm

 

 

 

 

 

 

 

rapidgator.net

 

 

 

 

 

 

 

http://shrt10.com/tLl3MF

 

 

 

 

 

 

 

 

 

Watch CMLL 2017 10 06 Super Viernes 720p

Support HVIPS

Please Disable Ad-Block To View This site. just help us to continue this work