Watch Chikara The Lodger 2017 1080p

Watch Chikara The Lodger 2017 1080p

 

 

 

 

 

 

wwe

 

 

 

 

 

 
Complete name : The Lodger _ CHIKARA Pro.mp4
Format : MPEG-4
Format profile : Base Media
Codec ID : isom
File size : 4.68 GiB
Duration : 2h 1mn
Overall bit rate : 5 519 Kbps
Writing application : Lavf57.71.100

Video
ID : 1
Format : AVC
Format/Info : Advanced Video Codec
Codec ID : avc1
Codec ID/Info : Advanced Video Coding
Duration : 2h 1mn
Bit rate mode : Variable
Bit rate : 5 400 Kbps
Width : 1 920 pixels
Height : 1 080 pixels
Display aspect ratio : 16:9
Frame rate mode : Variable
Frame rate : 29.970 fps
Minimum frame rate : 7.440 fps
Maximum frame rate : 29.970 fps
Color space : YUV
Chroma subsampling : 4:2:0
Bit depth : 8 bits
Scan type : Progressive
Bits/(Pixel*Frame) : 0.087
Stream size : 4.54 GiB (97%)

Audio
ID : 2
Format : AAC
Format/Info : Advanced Audio Codec
Format profile : LC
Codec ID : 40
Duration : 2h 1mn
Bit rate mode : Variable
Bit rate : 160 Kbps
Maximum bit rate : 167 Kbps
Channel(s) : 2 channels
Channel positions : Front: L R
Sampling rate : 44.1 KHz
Compression mode : Lossy
Stream size : 139 MiB (3%)

 

 

 

 

 

 

 

 

 

 

 

 

 

 

 

 

 

 

 

Watch Chikara The Lodger 2017 1080p

 

 

 

 

Watch online

 

 

Waiting finish converting video

 

 

Server 1

 

 

 

 

 

 

 

 

 

 

 

 

 

 

 

 

 

 

 

Server 2

 

 

 

 

 

 

 

 

 


 

 

 

 

 

 

Uploaded By Site DX-TV.com

 

 

 

open rar file to see this password

 

 

 

 

The password is : DX-TV.com

 

 

 

 

 

 

Uploaded.net + rapidgator.net

 

 

 

 

 

 

 

http://shrt10.com/voZWzOqB

 

http://shrt10.com/mt7F

 

http://shrt10.com/bEktd

 

http://shrt10.com/OZEH
 

 

 

 

 

Watch Chikara The Lodger 2017 1080p

Support HVIPS

Please Disable Ad-Block To View This site. just help us to continue this work