Watch Chikara A Good Man Goes To War 2017 1080p

Watch Chikara A Good Man Goes To War 2017 1080p

 

 

 

 

 

wwe

 

 

 

 

 

 

Complete name : A Good Man Goes To War _ CHIKARA Pro.mp4
Format : MPEG-4
Format profile : Base Media
Codec ID : isom
File size : 5.77 GiB
Duration : 2h 29mn
Overall bit rate : 5 541 Kbps
Writing application : Lavf57.71.100

Video
ID : 1
Format : AVC
Format/Info : Advanced Video Codec
Codec ID/Info : Advanced Video Coding
Duration : 2h 29mn
Bit rate mode : Variable
Bit rate : 5 400 Kbps
Width : 1 920 pixels
Height : 1 080 pixels
Display aspect ratio : 16:9
Frame rate mode : Variable
Frame rate : 29.970 fps
Minimum frame rate : 7.511 fps
Maximum frame rate : 29.970 fps
Color space : YUV
Chroma subsampling : 4:2:0
Bit depth : 8 bits
Scan type : Progressive
Bits/(Pixel*Frame) : 0.087
Stream size : 5.60 GiB (97%)

Audio
ID : 2
Format : AAC
Format/Info : Advanced Audio Codec
Format profile : LC
Codec ID : 40
Duration : 2h 29mn
Bit rate mode : Variable
Bit rate : 160 Kbps
Maximum bit rate : 167 Kbps
Channel(s) : 2 channels
Channel positions : Front: L R
Sampling rate : 44.1 KHz
Compression mode : Lossy
Stream size : 171 MiB (3%)

 

 

 

 

 

 

 

 

 

 

 

 

 

 

 

 

 

 

Watch Chikara A Good Man Goes To War 2017 1080p

 

 

 

 

Watch online

 

 

Waiting finish converting video

 

 

Server 1

 

 

 

 

 

 

 

 

 

 

 

 

 

 

 

 

 

 

Server 2

 

 

 

 

 

 

 

 

 

 

 

 

 

 

 

Uploaded By Site DX-TV.com

 

 

 

open rar file to see this password

 

 

 

 

The password is : DX-TV.com

 

 

 

 

 

 

Uploaded.net + rapidgator.net

 

 

 

 

 

 

 

 

http://shrt10.com/ITYZSSp

 

 

http://shrt10.com/jp3HaA

 

 

http://shrt10.com/OK2D3OtZ

 

 

http://shrt10.com/kofUiO

 

 

 

 

 

 

 

 

Watch Chikara A Good Man Goes To War 2017 1080p

Support HVIPS

Please Disable Ad-Block To View This site. just help us to continue this work