Watch Cage Warriors 91 Reed vs Bouland WEB DL SF63 /720p

Watch Cage Warriors 91 Reed vs Bouland WEB DL SF63 /720p

 

 

 

 

 

 

wwe

 

 

 

 

 

 

 

Complete name : Cage.Warriors.91.Reed.vs.Bouland.WEB.DL.H264-SF63.mp4
Format : MPEG-4
Format profile : Base Media
Codec ID : isom
File size : 1.28 GiB
Duration : 2h 0mn
Overall bit rate : 1 527 Kbps
Writing application : Lavf56.40.101

Video
ID : 1
Format : AVC
Format/Info : Advanced Video Codec
Codec ID : avc1
Codec ID/Info : Advanced Video Coding
Duration : 2h 0mn
Bit rate mode : Variable
Bit rate : 1 440 Kbps
Width : 960 pixels
Height : 540 pixels
Display aspect ratio : 16:9
Frame rate mode : Constant
Frame rate : 29.970 fps
Color space : YUV
Chroma subsampling : 4:2:0
Bit depth : 8 bits
Scan type : Progressive
Bits/(Pixel*Frame) : 0.093
Stream size : 1.21 GiB (94%)

Audio
ID : 2
Format : AAC
Format/Info : Advanced Audio Codec
Format profile : LC
Codec ID : 40
Duration : 2h 0mn
Bit rate mode : Constant
Bit rate : 77.6 Kbps
Channel(s) : 2 channels
Channel positions : Front: L R
Sampling rate : 44.1 KHz
Compression mode : Lossy
Stream size : 66.6 MiB (5%)

 

 

 

 

 
Cage.Warriors.91.Reed.vs.Bouland.720p.WEB.DL.H264-SF63
Encoder: @Sajjad Fazli Mar 3, 2018
Source: UFC.TV
Video: MPEG4 (H264) 1280×720 29.970fps 2774kbps
Audio: AAC 44100Hz stereo 126kbps
Duration: 2h 00min
File size: 2.44 GiB
 

 

 

 

 

 

Watch Cage Warriors 91 Reed vs Bouland WEB DL SF63 /720p

 

 

 

 

Watch online

 

 

Waiting finish converting video

 

 

Server 1

 

 

 

 

 

 

 

 

 

 

 

 

 

 

 

 

 

 

 

 

Server 2

 

 

 

 

 

 

 

 

 

 

 

 

 

 

 

 

 

 

 

 

 

 

 

 

Uploaded By Site DX-TV.com

 

 

 

open rar file to see this password

 

 

 

 

The password is : DX-TV.com

 

 

 

 

400p+720p

 

 

 

 

 

Uploaded.net + rapidgator.net

 

 

 

 

 

 

 

http://shrt10.com/HRRmz18i

 

 

 

http://shrt10.com/SS2l

 

 

 

http://shrt10.com/A7BG

 

 

 

http://shrt10.com/sBWooeuO

 

 

 

 

 

 

 

 

 

 

 

 

 

 

Watch Cage Warriors 91 Reed vs Bouland WEB DL SF63 /720p