Watch Cage Warriors 89 WEB DL /720p

Watch Cage Warriors 89 WEB DL /720p

 

 

 

 

 

 

wwe

 

 

 

 

 

 

 

Complete name : Cage.Warriors.89.WEB-DL.mp4
Format : MPEG-4
Format profile : Base Media
Codec ID : isom
File size : 1.27 GiB
Duration : 2h 0mn
Overall bit rate : 1 520 Kbps
Writing application : Lavf56.40.101

Video
ID : 1
Format : AVC
Duration : 2h 0mn
Bit rate mode : Variable
Bit rate : 1 433 Kbps
Width : 852 pixels
Height : 480 pixels
Display aspect ratio : 16:9
Frame rate mode : Constant
Frame rate : 29.970 fps
Color space : YUV
Chroma subsampling : 4:2:0
Bit depth : 8 bits
Scan type : Progressive
Bits/(Pixel*Frame) : 0.117
Stream size : 1.20 GiB (94%)

Audio
ID : 2
Format : AAC
Format profile : LC
Codec ID : 40
Duration : 2h 0mn
Bit rate mode : Constant
Bit rate : 77.6 Kbps
Channel(s) : 2 channels
Channel positions : Front: L R
Sampling rate : 44.1 KHz
Compression mode : Lossy
Stream size : 66.6 MiB (5%)

 

 

 

 

 

 

 
Complete name : Cage.Warriors.89.720p.WEB-DL .mp4
Format : MPEG-4
Format profile : Base Media
Codec ID : isom
File size : 3.68 GiB
Duration : 2h 0mn
Overall bit rate : 4 386 Kbps
Writing application : Lavf56.40.101

Video
ID : 1
Format : AVC
Duration : 2h 0mn
Bit rate mode : Variable
Bit rate : 4 252 Kbps
Width : 1 280 pixels
Height : 720 pixels
Display aspect ratio : 16:9
Frame rate mode : Variable
Frame rate : 29.931 fps
Original frame rate : 29.970 fps
Minimum frame rate : 0.116 fps
Maximum frame rate : 29.970 fps
Color space : YUV
Chroma subsampling : 4:2:0
Bit depth : 8 bits
Scan type : Progressive
Bits/(Pixel*Frame) : 0.154
Stream size : 3.56 GiB (97%)

Audio
ID : 2
Format : AAC
Format profile : LC
Codec ID : 40
Duration : 2h 0mn
Bit rate mode : Constant
Bit rate : 125 Kbps
Channel(s) : 2 channels
Channel positions : Front: L R
Sampling rate : 44.1 KHz
Compression mode : Lossy
Stream size : 108 MiB (3%)

 

 

 

 

 

 

 

 

 

Watch Cage Warriors 89 WEB DL /720p

 

 

 

 

Watch online

 

 

Waiting finish converting video

 

 

Server 1

 

 

 

 

 

 

 

 

 

 

 

 

 

 

 

 

 

 

 

 

Server 2

 

 

 

 

 

 

 

 

 


 

 

 

 

 

 

 

Srver 3

 

 

 

 

 

 

 

 


 

 

 

 

 

 

 

 

 

 

Uploaded By Site DX-TV.com

 

 

 

open rar file to see this password

 

 

 

 

The password is : DX-TV.com

 

 

 

 

400p+720p

 

 

 

Uploaded.net

 

 

 

 

 

 

 

http://shrt10.com/JROeWAg

 

 

 

 

http://shrt10.com/sM70h

 

 

 

 

 

 

 

 

rapidgator.net

 

 

 

 

 

 

 

 

http://shrt10.com/U8xA

 

 

 

 

http://shrt10.com/XJus8E

 

 

 

 

 

 

 

 

 

Watch Cage Warriors 89 WEB DL /720p