Watch Beyond Wrestling Heavy Lies The Crown 2017 12 31

Watch Beyond Wrestling Heavy Lies The Crown 2017 12 31

 

 

 

 

 

wwe

 

 

 

 

 

 
Complete name : Beyond Wrestling – Heavy Lies The Crown [2017.12.31].mp4
Format : MPEG-4
Format profile : Base Media
Codec ID : isom
File size : 1.46 GiB
Duration : 2h 36mn
Overall bit rate : 1 336 Kbps
Writing application : Lavf55.12.100

Video
ID : 2
Format : AVC
Format/Info : Advanced Video Codec
Codec ID : avc1
Codec ID/Info : Advanced Video Coding
Duration : 2h 36mn
Bit rate mode : Variable
Bit rate : 1 200 Kbps
Width : 854 pixels
Height : 480 pixels
Display aspect ratio : 16:9
Original display aspect ratio : 16:9
Frame rate mode : Constant
Frame rate : 29.970 fps
Color space : YUV
Chroma subsampling : 4:2:0
Bit depth : 8 bits
Scan type : Progressive
Bits/(Pixel*Frame) : 0.098
Stream size : 1.31 GiB (90%)
Writing library : x264 core 148
Audio
ID : 1
Format : AAC
Format/Info : Advanced Audio Codec
Format profile : LC
Codec ID : 40
Duration : 2h 36mn
Bit rate mode : Variable
Bit rate : 128 Kbps
Maximum bit rate : 130 Kbps
Channel(s) : 2 channels
Channel positions : Front: L R
Sampling rate : 44.1 KHz
Compression mode : Lossy
Stream size : 143 MiB (10%)

 

 

 

 

 

 

 

 

 

Watch Beyond Wrestling Heavy Lies The Crown 2017 12 31

 

 

 

 

Watch online

 

 

Waiting finish converting video

 

 

Server 1

 

 

 

 

 

 

 

 

 

 

 

 

 

 

 

 

 

 

 

 

Server 2

 

 

 

 

 

 

 


 

 

 

 

 

 

Uploaded By Site DX-TV.com

 

 

 

open rar file to see this password

 

 

 

 

The password is : DX-TV.com

 

 

 

 

 

 

Uploaded.net + rapidgator.net

 

 

 

 

 

 

 

http://shrt10.com/UI0NW

 

 

 

 

http://shrt10.com/xq5E

 

 

 

 

 

 

 

 

 

Watch Beyond Wrestling Heavy Lies The Crown 2017 12 31