Watch Beyond Wrestling 2018 07 29 Americanrana 18 720p WEB NCMP

Watch Beyond Wrestling 2018 07 29 Americanrana 18 720p WEB NCMP

 

 

 


 

 

 

dx-tv.com

 

 

 

 

 

Complete name : Beyond.Wrestling.2018.07.29.Americanrana.18.720p.WEB.h264-NCMP.mp4
Format : MPEG-4
Format profile : Base Media
Codec ID : isom
File size : 2.87 GiB
Duration : 4h 6mn
Overall bit rate : 1 671 Kbps
Writing application : Lavf55.12.100

Video
ID : 2
Format : AVC
Format/Info : Advanced Video Codec
Codec ID : avc1
Codec ID/Info : Advanced Video Coding
Duration : 4h 6mn
Bit rate mode : Variable
Bit rate : 1 532 Kbps
Width : 1 280 pixels
Height : 720 pixels
Display aspect ratio : 16:9
Frame rate mode : Variable
Frame rate : 29.970 fps
Minimum frame rate : 29.940 fps
Maximum frame rate : 29.970 fps
Color space : YUV
Chroma subsampling : 4:2:0
Bit depth : 8 bits
Scan type : Progressive
Bits/(Pixel*Frame) : 0.055
Stream size : 2.63 GiB (92%)

Audio
ID : 1
Format : AAC
Format/Info : Advanced Audio Codec
Format profile : LC
Codec ID : 40
Duration : 4h 6mn
Bit rate mode : Constant
Bit rate : 129 Kbps
Channel(s) : 2 channels
Channel positions : Front: L R
Sampling rate : 48.0 KHz
Compression mode : Lossy
Stream size : 228 MiB (8%)

 

 

 

Watch Beyond Wrestling 2018 07 29 Americanrana 18 720p WEB NCMP

 

 

 

 

Watch online

 

 

Waiting finish converting video

 

 

Server 1

 

 

 

 

 

 

 

 

 

 

 

 

 

 

 

Server 2

 

 

 

 

 

 

 

 

 

 

 

 

 

Uploaded By Site DX-TV.com

 

 

 

open rar file to see this password

 

 

 

 

The password : DX-TV.com

 

 

 

 

Uploaded.net + rapidgator.net

 

 

 

 

 

 

http://shrt10.com/4GJDCi

 

 

 

 

 

http://shrt10.com/uFuqZzDQ

 

 

 

 

 

 

 

 

Watch Beyond Wrestling 2018 07 29 Americanrana 18 720p WEB NCMP