Watch Beyond Wrestling 2018 02 24 I Want It All

Watch Beyond Wrestling 2018 02 24 I Want It All

 

 

 

 

 

wwe

 

 

 

 

 

 

 

 
Complete name : Beyond Wrestling – 2018.02.24 – I Want It All.mp4
Format : MPEG-4
Format profile : Base Media
Codec ID : isom
File size : 1.50 GiB
Duration : 3h 15mn
Overall bit rate : 1 100 Kbps
Writing application : Lavf55.12.100

Video
ID : 2
Format : AVC
Format/Info : Advanced Video Codec
Codec ID : avc1
Codec ID/Info : Advanced Video Coding
Duration : 3h 15mn
Bit rate mode : Variable
Bit rate : 997 Kbps
Width : 854 pixels
Height : 480 pixels
Display aspect ratio : 16:9
Frame rate mode : Variable
Frame rate : 29.944 fps
Minimum frame rate : 0.254 fps
Maximum frame rate : 30.303 fps
Color space : YUV
Chroma subsampling : 4:2:0
Bit depth : 8 bits
Scan type : Progressive
Bits/(Pixel*Frame) : 0.081
Stream size : 1.36 GiB (91%)

Audio
ID : 1
Format : AAC
Format/Info : Advanced Audio Codec
Format profile : LC
Codec ID : 40
Duration : 3h 15mn
Bit rate mode : Constant
Bit rate : 96.0 Kbps
Channel(s) : 2 channels
Channel positions : Front: L R
Sampling rate : 48.0 KHz
Compression mode : Lossy
Stream size : 134 MiB (9%)

 

 

 

 

 

 

 

 

 

 

 

 

 

 

 

 

 

Watch Beyond Wrestling 2018 02 24 I Want It All

 

 

 

 

Watch online

 

 

Waiting finish converting video

 

 

Server 1

 

 

 

 

 

 

 

 

 

 

 

 

 

 

 

 

 

 

 

Server 2

 

 

 

 

 

 

 

 


 

 

 

 

 

 

 

Uploaded By Site DX-TV.com

 

 

 

open rar file to see this password

 

 

 

 

The password is : DX-TV.com

 

 

 

 

 

 

Uploaded.net + rapidgator.net

 

 

 

 

 

 

 

http://shrt10.com/dILmA2U9

 

 

 

 

 

http://shrt10.com/QOqZk

 

 

 

 

 

 

 

 

Watch Beyond Wrestling 2018 02 24 I Want It All