Watch Beyond Wrestling 2018 01 27 Spirit of 76 Remastered 720p WEB NCMP

Watch Beyond Wrestling 2018 01 27 Spirit of 76 Remastered 720p WEB NCMP

 

 

 

 

 

wwe

 

 

 

 

 

 

 
Complete name : Beyond.Wrestling.2018.01.27.Spirit.of.76.Remastered.720p.WEB.h264-NCMP.mp4
Format : MPEG-4
Format profile : Base Media
Codec ID : isom
File size : 1.78 GiB
Duration : 2h 32mn
Overall bit rate : 1 670 Kbps
Writing application : Lavf55.12.100

Video
ID : 2
Format : AVC
Format/Info : Advanced Video Codec
Codec ID : avc1
Codec ID/Info : Advanced Video Coding
Duration : 2h 32mn
Bit rate mode : Variable
Bit rate : 1 531 Kbps
Width : 1 280 pixels
Height : 720 pixels
Display aspect ratio : 16:9
Frame rate mode : Constant
Frame rate : 29.970 fps
Color space : YUV
Chroma subsampling : 4:2:0
Bit depth : 8 bits
Scan type : Progressive
Bits/(Pixel*Frame) : 0.055
Stream size : 1.63 GiB (92%)

Audio
ID : 1
Format : AAC
Format/Info : Advanced Audio Codec
Format profile : LC
Codec ID : 40
Duration : 2h 32mn
Bit rate mode : Variable
Bit rate : 128 Kbps
Maximum bit rate : 130 Kbps
Channel(s) : 2 channels
Channel positions : Front: L R
Sampling rate : 44.1 KHz
Compression mode : Lossy
Stream size : 140 MiB (8%)

 

 

 

 

 

 

 

 

 

 

 

 

 

 

 

 

 

 

Watch Beyond Wrestling 2018 01 27 Spirit of 76 Remastered 720p WEB NCMP

 

 

 

 

Watch online

 

 

Waiting finish converting video

 

 

Server 1

 

 

 

 

 

 

 

 

 

 

 

 

 

 

 

 

 

 

 

 

 

Server 2

 

 

 

 

 

 

 

 

 

 

 

 

 

 

 

 

 

 

 

 

 

 

 

 

 

Uploaded By Site DX-TV.com

 

 

 

open rar file to see this password

 

 

 

 

The password is : DX-TV.com

 

 

 

 

 

Uploaded.net + rapidgator.net

 

 

 

 

 

 

 

 

 

http://shrt10.com/FAeLO5l

 

 

 

 

 

 

http://shrt10.com/78Npy

 

 

 

 

 

 

 

 

Watch Beyond Wrestling 2018 01 27 Spirit of 76 Remastered 720p WEB NCMP